TAIFUN With Song
Вернуться   TAIFUN With Song > Music (обменник) > Rock > Pop Rock
Расширенный поиск
Pop Rock Поп-рок — жанр музыки, объединяющий элементы поп-музыки и рок-музыки. Песни характеризуются простой структурой, запоминающимися мелодиями, повторением музыкальных фраз (от попа), использованием в качестве основных инструментов электрогитар и ударных и агрессивным настроением (от рока).

А знаете ли Вы, что...
Какие предметы лежат в склепе Боба Марли?
«Знаменитый ямайский регги-музыкант Боб Марли завещал положить в свой посмертный склеп гитару «Les Paul», футбольный мяч, Библию и свёрток марихуаны.»
 
Опции темы

  #1
Старый 20.02.2016, 18:18
sergych
Координатор
Досье
 
Аватар для sergych
Релиз Cyndi Lauper - A Night To Remember


1989 - Cyndi Lauper - A Night To Remember




Исполнитель/Artist: Cyndi Lauper
Альбом/Album: A Night To Remember
Год/Year: 1989
Жанр/Genre: Pop rock, adult contemporary, new wave
Страна/Country: Австрия
Рекорд-лейбл/Record label: CBS Records / EPIC
Номер в каталоге/Catalogue #: EPC 462499 2
Формат/Format: Free Lossless Audio Codec (*.flac)
Качество/Quality: Lossless
Тип рипа/RIP Type: image+.cue
Продолжительность/Length: 00:39:51
Источник/Source: Собственный рип
Размер/Size: 339.1 MB

Сканы в комплекте

Треклист

01. Intro [0:00:27.35]
02. I Drove All Night [0:04:11.57]
03. Primitive [0:03:48.53]
04. My First Night Without You [0:03:01.25]
05. Like A Cat [0:03:25.00]
06. Heading West [0:03:55.30]
07. A Night To Remember [0:03:43.30]
08. Unconditional Love [0:03:56.35]
09. Insecurious [0:03:30.57]
10. Dancing With A Stranger [0:04:12.40]
11. I Don't Want To Be Your Friend [0:04:22.00]
12. Kindred Spirit [0:01:16.13]
[свернуть]

youtube.com

[свернуть]

Исполнители/Performers

Cyndi Lauper – dulcimer, arranger, vocals, background vocals, producer, art direction
Angela Clemmons-Patrick, David Spinner, Frank Simms, Franke Previte, George Simms, Gordon Grody, Larry Blackmon, Nathan Leftenant, Tom Kelly, Tomi Jenkins – background vocals
Rockin' Dopsie – accordion
Steve Ferrone – drums
Joe Bellia – drum machine
John McCurry – guitar, coral sitar
Eric Clapton – guitar (track 11)
Bobby Bandiera, Dave Dale, Paul Pesco, Rick Derringer, Rob Newhouse – guitar
George Recile – triangle, frotois
Carole Steele – percussion
Richard Travali – synthesizer
Peter Wood, Tommy Mandel – keyboards
John Turi – keyboards, saxophone
Jeff Bova – arranger, keyboards
Bakithi Khumalo, Bootsy Collins, Neil Jason, T.M. Stevens, Tom "T-Bone" Wolk – bass
[свернуть]

EAC лог

Exact Audio Copy V1.1 from 23. June 2015

EAC extraction logfile from 19. February 2016, 19:35

Cyndi Lauper / A Night To Remember

Used drive : ATAPI iHAS124 D Adapter: 0 ID: 2

Read mode : Secure
Utilize accurate stream : Yes
Defeat audio cache : Yes
Make use of C2 pointers : No

Read offset correction : 6
Overread into Lead-In and Lead-Out : No
Fill up missing offset samples with silence : Yes
Delete leading and trailing silent blocks : No
Null samples used in CRC calculations : Yes
Used interface : Installed external ASPI interface

Used output format : User Defined Encoder
Selected bitrate : 1024 kBit/s
Quality : High
Add ID3 tag : Yes
Command line compressor : C:\Program Files (x86)\Exact Audio Copy\Flac\flac.exe
Additional command line options : -6 -V -T "ARTIST=%artist%" -T "TITLE=%title%" -T "ALBUM=%albumtitle%" -T "DATE=%year%" -T "TRACKNUMBER=%tracknr%" -T "GENRE=%genre%" -T "COMMENT=%comment%" -T "BAND=%albuminterpret%" -T "COMPOSER=%composer%" %haslyrics%--tag-from-file=LYRICS="%lyricsfile%"%haslyrics% -T "DISCNUMBER=%cdnumber%" -T "TOTALDISCS=%totalcds%" -T "TOTALTRACKS=%numtracks%" %hascover%--picture="%coverfile%"%hascover% %source% -o %dest%


TOC of the extracted CD

Track | Start | Length | Start sector | End sector
---------------------------------------------------------
1 | 0:00.00 | 0:27.35 | 0 | 2059
2 | 0:27.35 | 4:11.57 | 2060 | 20941
3 | 4:39.17 | 3:48.53 | 20942 | 38094
4 | 8:27.70 | 3:01.25 | 38095 | 51694
5 | 11:29.20 | 3:25.00 | 51695 | 67069
6 | 14:54.20 | 3:55.30 | 67070 | 84724
7 | 18:49.50 | 3:43.30 | 84725 | 101479
8 | 22:33.05 | 3:56.35 | 101480 | 119214
9 | 26:29.40 | 3:30.57 | 119215 | 135021
10 | 30:00.22 | 4:12.40 | 135022 | 153961
11 | 34:12.62 | 4:22.00 | 153962 | 173611
12 | 38:34.62 | 1:16.13 | 173612 | 179324


Range status and errors

Selected range

Filename C:\mm\Cyndi Lauper\1989 - A Night To Remember [EPC 462499 2]\Cyndi Lauper - A Night To Remember.wav

Peak level 100.0 %
Extraction speed 8.1 X
Range quality 100.0 %
Test CRC 237554EA
Copy CRC 237554EA
Copy OK

No errors occurred


AccurateRip summary

Track 1 accurately ripped (confidence 70) [34CF3158] (AR v2)
Track 2 accurately ripped (confidence 67) [F4B584E8] (AR v2)
Track 3 accurately ripped (confidence 69) [94EB9363] (AR v2)
Track 4 accurately ripped (confidence 69) [53B29165] (AR v2)
Track 5 accurately ripped (confidence 68) [A5428A24] (AR v2)
Track 6 accurately ripped (confidence 70) [0BD971CA] (AR v2)
Track 7 accurately ripped (confidence 68) [380D3906] (AR v2)
Track 8 accurately ripped (confidence 70) [247AD480] (AR v2)
Track 9 accurately ripped (confidence 71) [CE55F672] (AR v2)
Track 10 accurately ripped (confidence 70) [4907AFDC] (AR v2)
Track 11 accurately ripped (confidence 69) [9B4B4270] (AR v2)
Track 12 accurately ripped (confidence 71) [4B9C905C] (AR v2)

All tracks accurately ripped

End of status report
[свернуть]

Файл CUE

REM GENRE Pop/Rock
REM DATE 1989
REM DISCID 9309570C
REM COMMENT "ExactAudioCopy v1.1"
PERFORMER "Cyndi Lauper"
TITLE "A Night To Remember"
FILE "Cyndi Lauper - A Night To Remember.flac" WAVE
TRACK 01 AUDIO
TITLE "Intro"
PERFORMER "Cyndi Lauper"
INDEX 01 00:00:00
TRACK 02 AUDIO
TITLE "I Drove All Night"
PERFORMER "Cyndi Lauper"
INDEX 00 00:27:25
INDEX 01 00:27:35
TRACK 03 AUDIO
TITLE "Primitive"
PERFORMER "Cyndi Lauper"
INDEX 00 04:38:42
INDEX 01 04:39:17
TRACK 04 AUDIO
TITLE "My First Night Without You"
PERFORMER "Cyndi Lauper"
INDEX 00 08:27:25
INDEX 01 08:27:70
TRACK 05 AUDIO
TITLE "Like A Cat"
PERFORMER "Cyndi Lauper"
INDEX 00 11:29:00
INDEX 01 11:29:20
TRACK 06 AUDIO
TITLE "Heading West"
PERFORMER "Cyndi Lauper"
INDEX 00 14:52:10
INDEX 01 14:54:20
TRACK 07 AUDIO
TITLE "A Night To Remember"
PERFORMER "Cyndi Lauper"
INDEX 00 18:48:40
INDEX 01 18:49:50
TRACK 08 AUDIO
TITLE "Unconditional Love"
PERFORMER "Cyndi Lauper"
INDEX 01 22:33:05
TRACK 09 AUDIO
TITLE "Insecurious"
PERFORMER "Cyndi Lauper"
INDEX 00 26:29:00
INDEX 01 26:29:40
TRACK 10 AUDIO
TITLE "Dancing With A Stranger"
PERFORMER "Cyndi Lauper"
INDEX 01 30:00:22
TRACK 11 AUDIO
TITLE "I Don't Want To Be Your Friend"
PERFORMER "Cyndi Lauper"
INDEX 00 34:11:32
INDEX 01 34:12:62
TRACK 12 AUDIO
TITLE "Kindred Spirit"
PERFORMER "Cyndi Lauper"
INDEX 00 38:33:50
INDEX 01 38:34:62
[свернуть]

Лог проверки качества

AUDIOCHECKER v2.0 beta (build 457) - by Dester -
~~~~~~~~~~~~~~~~~~~~~~~~~~~~~~~~~~
-=== НЕ РЕДАКТИРУЙТЕ ЭТОТ ФАЙЛ! ===-

Путь: ...\1989 - A Night To Remember [EPC 462499 2]

1 -=- Cyndi Lauper - A Night To Remember.flac -=- CDDA (100%)

172495524
[свернуть]

Спектр частот

[свернуть]

Скачать Cyndi Lauper - A Night To Remember



password: sergych
[свернуть]
My opinion of release: 10/10

Release info RInfo

Третий альбом Синди вышел 23 мая 1989 года. Хотя он получил одобрительные оценки критиков, его продажи оказались значительно ниже по сравнению с предыдущими двумя работами певицы. Альбом содержал лишь один хит - I Drove All Night, кавер-версию песни Роя Орбисона, которую он записал перед своей смертью и не включил ни в один альбом или сборник. В это же время Синди прекратила личные и деловые отношения со своим менеджером и возлюбленным Дэвидом Уолффом.
Вообще, на мой взгляд, этот альбом более спокойный, ровный и... чуточку грустный.
__________________
TAIFUN.Wings of Soul

Вверх
5 пользователя(ей) сказали cпасибо:
Показать список поблагодаривших
  #2
Старый 21.02.2016, 07:52
swint68
Меломан
Досье
 
Аватар для swint68
По умолчанию Re: Cyndi Lauper - A Night To Remember

Хороший альбом.

Вверх
2 пользователя(ей) сказали cпасибо:
sergych (21.02.2016), TAIFUN (26.02.2016)
  #3
Старый 21.02.2016, 10:31
sergych
Координатор
Досье
 
Аватар для sergych
По умолчанию Re: Cyndi Lauper - A Night To Remember

Цитата: Сообщение от swint68 Посмотреть сообщение
Хороший альбом

Хороший, но не более. От Синди обычно ожидаешь бОльшей энергетики и драйва. Она, как человек очень эмоциональный, здорово умеет заряжать своим настроением (за что я её для себя и выделил )
__________________
TAIFUN.Wings of Soul

Вверх
Пользователь сказал cпасибо:
TAIFUN (26.02.2016)
  #4
Старый 24.02.2016, 17:09
swint68
Меломан
Досье
 
Аватар для swint68
По умолчанию Re: Cyndi Lauper - A Night To Remember

Цитата: Сообщение от sergych Посмотреть сообщение
Хороший, но не более.

А мне она вся нравится.
Разная и необычная.

Вверх
2 пользователя(ей) сказали cпасибо:
sergych (25.02.2016), TAIFUN (26.02.2016)
  #5
Старый 09.10.2017, 20:33
sergych
Координатор
Досье
 
Аватар для sergych
Релиз Re: Cyndi Lauper - A Night To Remember


1989 - Cyndi Lauper - A Night To Remember




Исполнитель/Artist: Cyndi Lauper
Альбом/Album: A Night To Remember
Год/Year: 1989
Жанр/Genre: Pop rock, adult contemporary, new wave
Страна/Country: Япония
Рекорд-лейбл/Record label: CBS Records
Номер в каталоге/Catalogue #: 25-8P-5230
Формат/Format: Free Lossless Audio Codec (*.flac)
Качество/Quality: Lossless
Тип рипа/RIP Type: image+.cue
Продолжительность/Length: 00:43:50
Источник/Source: Собственный рип
Размер/Size: 327.5 MB

Сканы в комплекте

Треклист

01. Intro [0:00:27.55]
02. I Drove All Night [0:04:11.52]
03. Primitive [0:03:48.58]
04. My First Night Without You [0:03:01.27]
05. Like A Cat [0:03:25.03]
06. Heading West [0:03:55.35]
07. A Night To Remember [0:03:43.20]
08. Unconditional Love [0:03:56.35]
09. Insecurious [0:03:30.55]
10. Dancing With A Stranger [0:04:12.47]
11. I Don't Want To Be Your Friend [0:04:22.03]
12. Kindred Spirit [0:01:15.40]

Bonus track:
13. Hole In My Heart [0:03:59.10]
[свернуть]

youtube.com

[свернуть]

Исполнители/Performers

Cyndi Lauper – dulcimer, arranger, vocals, background vocals, producer, art direction
Angela Clemmons-Patrick, David Spinner, Frank Simms, Franke Previte, George Simms, Gordon Grody, Larry Blackmon, Nathan Leftenant, Tom Kelly, Tomi Jenkins – background vocals
Rockin' Dopsie – accordion
Steve Ferrone – drums
Joe Bellia – drum machine
John McCurry – guitar, coral sitar
Eric Clapton – guitar (track 11)
Bobby Bandiera, Dave Dale, Paul Pesco, Rick Derringer, Rob Newhouse – guitar
George Recile – triangle, frotois
Carole Steele – percussion
Richard Travali – synthesizer
Peter Wood, Tommy Mandel – keyboards
John Turi – keyboards, saxophone
Jeff Bova – arranger, keyboards
Bakithi Khumalo, Bootsy Collins, Neil Jason, T.M. Stevens, Tom "T-Bone" Wolk – bass
[свернуть]

EAC лог

Exact Audio Copy V1.3 from 2. September 2016

EAC extraction logfile from 12. August 2017, 10:17

Cyndi Lauper / A Night To Remember

Used drive : PLEXTOR DVDR PX-716A Adapter: 1 ID: 0

Read mode : Secure
Utilize accurate stream : Yes
Defeat audio cache : Yes
Make use of C2 pointers : No

Read offset correction : 30
Overread into Lead-In and Lead-Out : No
Fill up missing offset samples with silence : Yes
Delete leading and trailing silent blocks : No
Null samples used in CRC calculations : Yes
Used interface : Installed external ASPI interface

Used output format : User Defined Encoder
Selected bitrate : 1024 kBit/s
Quality : High
Add ID3 tag : No
Command line compressor : C:\Program Files (x86)\Exact Audio Copy\Flac\flac.exe
Additional command line options : -6 -V -T "ARTIST=%artist%" -T "TITLE=%title%" -T "ALBUM=%albumtitle%" -T "DATE=%year%" -T "TRACKNUMBER=%tracknr%" -T "GENRE=%genre%" -T "COMMENT=%comment%" -T "BAND=%albuminterpret%" -T "ALBUMARTIST=%albuminterpret%" -T "COMPOSER=%composer%" %haslyrics%--tag-from-file=LYRICS="%lyricsfile%"%haslyrics% -T "DISCNUMBER=%cdnumber%" -T "TOTALDISCS=%totalcds%" -T "TOTALTRACKS=%numtracks%" %hascover%--picture="%coverfile%"%hascover% %source% -o %dest%


TOC of the extracted CD

Track | Start | Length | Start sector | End sector
---------------------------------------------------------
1 | 0:00.00 | 0:27.55 | 0 | 2079
2 | 0:27.55 | 4:11.52 | 2080 | 20956
3 | 4:39.32 | 3:48.58 | 20957 | 38114
4 | 8:28.15 | 3:01.27 | 38115 | 51716
5 | 11:29.42 | 3:25.03 | 51717 | 67094
6 | 14:54.45 | 3:55.35 | 67095 | 84754
7 | 18:50.05 | 3:43.20 | 84755 | 101499
8 | 22:33.25 | 3:56.35 | 101500 | 119234
9 | 26:29.60 | 3:30.55 | 119235 | 135039
10 | 30:00.40 | 4:12.47 | 135040 | 153986
11 | 34:13.12 | 4:22.03 | 153987 | 173639
12 | 38:35.15 | 1:15.40 | 173640 | 179304
13 | 39:50.55 | 3:59.10 | 179305 | 197239


Range status and errors

Selected range

Filename C:\mm\Cyndi Lauper\1989 - A Night To Remember [25-8P-5230]\Cyndi Lauper - A Night To Remember.wav

Peak level 100.0 %
Extraction speed 9.7 X
Range quality 100.0 %
Test CRC 1DD23F16
Copy CRC 1DD23F16
Copy OK

No errors occurred

End of status report

---- CUETools DB Plugin V2.1.6

[CTDB TOCID: 5yf4EzwfO1zTI1cw5LG4F4dchSE-] found
Submit result: 5yf4EzwfO1zTI1cw5LG4F4dchSE- has been confirmed
Track | CTDB Status
1 | (55/55) Accurately ripped
2 | (55/55) Accurately ripped
3 | (55/55) Accurately ripped
4 | (55/55) Accurately ripped
5 | (55/55) Accurately ripped
6 | (55/55) Accurately ripped
7 | (55/55) Accurately ripped
8 | (55/55) Accurately ripped
9 | (55/55) Accurately ripped
10 | (55/55) Accurately ripped
11 | (55/55) Accurately ripped
12 | (55/55) Accurately ripped
13 | (55/55) Accurately ripped
[свернуть]

Файл CUE

REM GENRE Pop
REM DATE 1989
REM DISCID 9E0A450D
REM COMMENT "ExactAudioCopy v1.3"
PERFORMER "Cyndi Lauper"
TITLE "A Night To Remember"
REM COMPOSER ""
FILE "Cyndi Lauper - A Night To Remember.flac" WAVE
TRACK 01 AUDIO
TITLE "Intro"
PERFORMER "Cyndi Lauper"
REM COMPOSER ""
INDEX 01 00:00:00
TRACK 02 AUDIO
TITLE "I Drove All Night"
PERFORMER "Cyndi Lauper"
REM COMPOSER ""
INDEX 01 00:27:55
TRACK 03 AUDIO
TITLE "Primitive"
PERFORMER "Cyndi Lauper"
REM COMPOSER ""
INDEX 01 04:39:32
TRACK 04 AUDIO
TITLE "My First Night Without You"
PERFORMER "Cyndi Lauper"
REM COMPOSER ""
INDEX 01 08:28:15
TRACK 05 AUDIO
TITLE "Like A Cat"
PERFORMER "Cyndi Lauper"
REM COMPOSER ""
INDEX 01 11:29:42
TRACK 06 AUDIO
TITLE "Heading West"
PERFORMER "Cyndi Lauper"
REM COMPOSER ""
INDEX 01 14:54:45
TRACK 07 AUDIO
TITLE "A Night To Remember"
PERFORMER "Cyndi Lauper"
REM COMPOSER ""
INDEX 01 18:50:05
TRACK 08 AUDIO
TITLE "Unconditional Love"
PERFORMER "Cyndi Lauper"
REM COMPOSER ""
INDEX 01 22:33:25
TRACK 09 AUDIO
TITLE "Insecurious"
PERFORMER "Cyndi Lauper"
REM COMPOSER ""
INDEX 01 26:29:60
TRACK 10 AUDIO
TITLE "Dancing With A Stranger"
PERFORMER "Cyndi Lauper"
REM COMPOSER ""
INDEX 01 30:00:40
TRACK 11 AUDIO
TITLE "I Don't Want To Be Your Friend"
PERFORMER "Cyndi Lauper"
REM COMPOSER ""
INDEX 01 34:13:12
TRACK 12 AUDIO
TITLE "Kindred Spirit"
PERFORMER "Cyndi Lauper"
REM COMPOSER ""
INDEX 01 38:35:15
TRACK 13 AUDIO
TITLE "Hole In My Heart"
PERFORMER "Cyndi Lauper"
REM COMPOSER ""
INDEX 01 39:50:55
[свернуть]

Лог проверки качества

AUDIOCHECKER v2.0 beta (build 457) - by Dester -
~~~~~~~~~~~~~~~~~~~~~~~~~~~~~~~~~~
-=== НЕ РЕДАКТИРУЙТЕ ЭТОТ ФАЙЛ! ===-

Путь: ...\1989 - A Night To Remember [25-8P-5230]

1 -=- Cyndi Lauper - A Night To Remember.flac -=- CDDA (100%)

172495524
[свернуть]

Скачать Cyndi Lauper - A Night To Remember



password: sergych
[свернуть]

Контрольная сумма (хеш-сумма) архива

MD5: cf070f76a01047dc3fc200e7e9862d72
[свернуть]
My opinion of release: 10/10
__________________
TAIFUN.Wings of Soul

Вверх
2 пользователя(ей) сказали cпасибо:
johnsilver (10.10.2017), swint68 (10.10.2017)
  #6
Старый 10.10.2017, 06:56
swint68
Меломан
Досье
 
Аватар для swint68
По умолчанию Re: Cyndi Lauper - A Night To Remember

Очередной раз спасибо!!!

Вверх
Пользователь сказал cпасибо:
sergych (13.10.2017)
Похожие темы
Тема Автор Раздел Ответов Последнее сообщение
Сборник Cyndi Lauper - Playlist: The Very Best of Cyndi Lauper sergych Soft Rock 1 18.03.2016 20:24
Сборник Cyndi Lauper - True Colors: The Best of Cyndi Lauper sergych Soft Rock 1 19.02.2016 06:43
Сборник Cyndi Lauper - The Essential. Cyndi Lauper sergych Soft Rock 0 10.11.2013 14:40
Cyndi Lauper sergych Rock [FAQ] 0 13.06.2008 18:50


Метки
1989 , a night to remember , adult contemporary , cyndi lauper , new wave , pop rock

Опции темы

Ваши права в разделе
Вы не можете создавать новые темы
Вы не можете отвечать в темах
Вы не можете прикреплять вложения
Вы не можете редактировать свои сообщения

Быстрый переход



Текущее время: 03:46. Часовой пояс GMT +3.
Powered by vBulletin® Version 3.8.7
Copyright ©2000 - 2017, vBulletin Solutions, Inc. Перевод: zCarot
© 2008 - 2017 Taifun With Song
Яндекс.Метрика