TAIFUN With Song - качественная и редкая музыка
Навигация
Jazz и Blues Гибкая ритмика, импровизационное начало, гармонии и мелодии - все это Jazz. Blues - жизнеутверждающая музыка, рожденная из душевной боли

А знаете ли Вы, что...
Какой диакритический знак стал использоваться рок-группами в качестве украшения?
«Диакритический знак умляут в виде двух точек над гласными Ä, Ö или Ü изменяет произношение этих звуков. Однако многие рок- и метал-группы украшают своё название умляутом просто для того, чтобы сделать его более «германским» или «скандинавским», так как фонетических изменений при этом не происходит. Самые известные примеры таких групп — Motörhead и Mötley Crüe. Некоторые коллективы идут дальше, помещая умляут над не предназначенными для этого гласными (Queensrÿche) или вообще над согласными (Spın̈al Tap).»
 
Опции темы

  #1
Старый 18.07.2019, 07:48
sergych
Координатор
Досье
 
Аватар для sergych
Релиз Norah Jones - ...Featuring Norah Jones


2010 - Norah Jones - ...Featuring Norah Jones




Исполнитель/Artist: Norah Jones
Альбом/Album: ...Featuring Norah Jones
Год/Year: 2010
Жанр/Genre: Folk Rock, Country Rock, Pop Rock, Indie Rock, Blues Rock, Contemporary Jazz, Piano Blues
Страна/Country: Япония
Рекорд-лейбл/Record label: Blue Note
Номер в каталоге/Catalogue #: TOCP-70881
Формат/Format: Free Lossless Audio Codec (*.flac)
Качество/Quality: Lossless
Тип рипа/RIP Type: image+.cue
Продолжительность/Length: 01:15:38
Источник/Source: Собственный рип
Размер/Size: 569.3 MB

Сканы в комплекте

Треклист

01. The Little Wilies: Love Me [0:03:53.28]
02. Foo Fighters: Virginia Moon [0:03:51.46]
03. Sean Bones: Turn Them [0:04:05.59]
04. Willie Nelson: Baby It's Cold Outside [0:04:00.48]
05. Sasha Dobson: Bull Rider [0:02:58.19]
06. Dirty Dozen Brass Band and Robert Randolph: Ruler of My Heart [0:03:00.07]
07. El Madmo: The Best Part [0:03:25.16]
08. Outkast: Take Off Your Cool [0:02:38.43]
09. Q-Tip: Life is Better [0:04:26.62]
10. Talib Kweli: Soon the New Day [0:04:04.25]
11. Belle and Sebastian: Little Lou, Ugly Jack, Prophet John [0:04:25.29]
12. Ray Charles: Here We Go Again [0:03:57.74]
13. Gillian Welch and David Rawlings: Loretta [0:03:22.43]
14. Ryan Adams: Dear John [0:04:36.63]
15. Dolly Parton: Creepin' In [0:03:03.63]
16. Herbie Hancock: Court & Spark [0:07:36.26]
17. Charlie Hunter: More Than This [0:04:12.23]
18. M. Ward: Blue Bayou [0:03:45.20]

Japan bonus track
19. Wyclef Jean: Any Other Day [0:04:13.16]
[свернуть]

Превью на YouTube

[свернуть]

EAC лог

Exact Audio Copy V1.3 from 2. September 2016

EAC extraction logfile from 5. July 2019, 21:21

Norah Jones / Featuring Norah Jones

Used drive : PIONEER DVD-RW DVR-220L Adapter: 1 ID: 0

Read mode : Secure
Utilize accurate stream : Yes
Defeat audio cache : Yes
Make use of C2 pointers : No

Read offset correction : 6
Overread into Lead-In and Lead-Out : No
Fill up missing offset samples with silence : Yes
Delete leading and trailing silent blocks : No
Null samples used in CRC calculations : Yes
Used interface : Installed external ASPI interface

Used output format : User Defined Encoder
Selected bitrate : 1024 kBit/s
Quality : High
Add ID3 tag : No
Command line compressor : C:\Program Files (x86)\Exact Audio Copy\Flac\flac.exe
Additional command line options : -6 -V -T "ARTIST=%artist%" -T "TITLE=%title%" -T "ALBUM=%albumtitle%" -T "DATE=%year%" -T "TRACKNUMBER=%tracknr%" -T "GENRE=%genre%" -T "COMMENT=%comment%" -T "BAND=%albuminterpret%" -T "ALBUMARTIST=%albuminterpret%" -T "COMPOSER=%composer%" %haslyrics%--tag-from-file=LYRICS="%lyricsfile%"%haslyrics% -T "DISCNUMBER=%cdnumber%" -T "TOTALDISCS=%totalcds%" -T "TOTALTRACKS=%numtracks%" %hascover%--picture="%coverfile%"%hascover% %source% -o %dest%


TOC of the extracted CD

Track | Start | Length | Start sector | End sector
---------------------------------------------------------
1 | 0:00.00 | 3:53.28 | 0 | 17502
2 | 3:53.28 | 3:51.46 | 17503 | 34873
3 | 7:44.74 | 4:05.59 | 34874 | 53307
4 | 11:50.58 | 4:00.48 | 53308 | 71355
5 | 15:51.31 | 2:58.19 | 71356 | 84724
6 | 18:49.50 | 3:00.07 | 84725 | 98231
7 | 21:49.57 | 3:25.16 | 98232 | 113622
8 | 25:14.73 | 2:38.43 | 113623 | 125515
9 | 27:53.41 | 4:26.62 | 125516 | 145527
10 | 32:20.28 | 4:04.25 | 145528 | 163852
11 | 36:24.53 | 4:25.29 | 163853 | 183756
12 | 40:50.07 | 3:57.74 | 183757 | 201605
13 | 44:48.06 | 3:22.43 | 201606 | 216798
14 | 48:10.49 | 4:36.63 | 216799 | 237561
15 | 52:47.37 | 3:03.63 | 237562 | 251349
16 | 55:51.25 | 7:36.26 | 251350 | 285575
17 | 63:27.51 | 4:12.23 | 285576 | 304498
18 | 67:39.74 | 3:45.20 | 304499 | 321393
19 | 71:25.19 | 4:13.16 | 321394 | 340384


Range status and errors

Selected range

Filename C:\mm\Norah Jones\2010 - ...Featuring Norah Jones [TOCP-701881]\Norah Jones - Featuring Norah Jones.wav

Peak level 100.0 %
Extraction speed 8.4 X
Range quality 99.9 %
Test CRC 41793C9F
Copy CRC 41793C9F
Copy OK

No errors occurred


AccurateRip summary

Track 1 accurately ripped (confidence 53) [7403D5D7] (AR v2)
Track 2 accurately ripped (confidence 52) [5EF6D270] (AR v2)
Track 3 accurately ripped (confidence 53) [337460B6] (AR v2)
Track 4 accurately ripped (confidence 53) [1178EF4E] (AR v2)
Track 5 accurately ripped (confidence 53) [542D96DD] (AR v2)
Track 6 accurately ripped (confidence 53) [C7F86D02] (AR v2)
Track 7 accurately ripped (confidence 53) [A519CDA1] (AR v2)
Track 8 accurately ripped (confidence 53) [A333B0B7] (AR v2)
Track 9 accurately ripped (confidence 53) [8D951DC5] (AR v2)
Track 10 accurately ripped (confidence 53) [BEBB637B] (AR v2)
Track 11 accurately ripped (confidence 53) [C602DDC6] (AR v2)
Track 12 accurately ripped (confidence 52) [C34D9D4C] (AR v2)
Track 13 accurately ripped (confidence 53) [D2983297] (AR v2)
Track 14 accurately ripped (confidence 53) [20D8CFC0] (AR v2)
Track 15 accurately ripped (confidence 53) [4A077585] (AR v2)
Track 16 accurately ripped (confidence 53) [4A2F0D82] (AR v2)
Track 17 accurately ripped (confidence 53) [5C2EF2D5] (AR v2)
Track 18 accurately ripped (confidence 52) [8E71AC85] (AR v2)
Track 19 accurately ripped (confidence 53) [D1EA02D9] (AR v2)

All tracks accurately ripped

End of status report
[свернуть]

Файл CUE

REM GENRE Rock
REM DATE 2010
REM DISCID 0D11BA13
REM COMMENT "ExactAudioCopy v1.3"
PERFORMER "Norah Jones"
TITLE "Featuring Norah Jones"
REM COMPOSER ""
FILE "Norah Jones - Featuring Norah Jones.flac" WAVE
TRACK 01 AUDIO
TITLE "The Little Wilies: Love Me"
PERFORMER "Norah Jones"
REM COMPOSER ""
INDEX 01 00:00:00
TRACK 02 AUDIO
TITLE "Foo Fighters: Virginia Moon"
PERFORMER "Norah Jones"
REM COMPOSER ""
INDEX 00 03:52:08
INDEX 01 03:53:28
TRACK 03 AUDIO
TITLE "Sean Bones: Turn Them"
PERFORMER "Norah Jones"
REM COMPOSER ""
INDEX 01 07:44:74
TRACK 04 AUDIO
TITLE "Willie Nelson: Baby It's Cold Outside"
PERFORMER "Norah Jones"
REM COMPOSER ""
INDEX 00 11:48:63
INDEX 01 11:50:58
TRACK 05 AUDIO
TITLE "Sasha Dobson: Bull Rider"
PERFORMER "Norah Jones"
REM COMPOSER ""
INDEX 00 15:49:06
INDEX 01 15:51:31
TRACK 06 AUDIO
TITLE "Dirty Dozen Brass Band and Robert Randolph: Ruler of My Heart"
PERFORMER "Norah Jones"
REM COMPOSER ""
INDEX 01 18:49:50
TRACK 07 AUDIO
TITLE "El Madmo: The Best Part"
PERFORMER "Norah Jones"
REM COMPOSER ""
INDEX 01 21:49:57
TRACK 08 AUDIO
TITLE "Outkast: Take Off Your Cool"
PERFORMER "Norah Jones"
REM COMPOSER ""
INDEX 01 25:14:73
TRACK 09 AUDIO
TITLE "Q-Tip: Life is Better"
PERFORMER "Norah Jones"
REM COMPOSER ""
INDEX 01 27:53:41
TRACK 10 AUDIO
TITLE "Talib Kweli: Soon the New Day"
PERFORMER "Norah Jones"
REM COMPOSER ""
INDEX 01 32:20:28
TRACK 11 AUDIO
TITLE "Belle and Sebastian: Little Lou, Ugly Jack, Prophet John"
PERFORMER "Norah Jones"
REM COMPOSER ""
INDEX 01 36:24:53
TRACK 12 AUDIO
TITLE "Ray Charles: Here We Go Again"
PERFORMER "Norah Jones"
REM COMPOSER ""
INDEX 01 40:50:07
TRACK 13 AUDIO
TITLE "Gillian Welch and David Rawlings: Loretta"
PERFORMER "Norah Jones"
REM COMPOSER ""
INDEX 01 44:48:06
TRACK 14 AUDIO
TITLE "Ryan Adams: Dear John"
PERFORMER "Norah Jones"
REM COMPOSER ""
INDEX 00 48:07:61
INDEX 01 48:10:49
TRACK 15 AUDIO
TITLE "Dolly Parton: Creepin' In"
PERFORMER "Norah Jones"
REM COMPOSER ""
INDEX 01 52:47:37
TRACK 16 AUDIO
TITLE "Herbie Hancock: Court & Spark"
PERFORMER "Norah Jones"
REM COMPOSER ""
INDEX 00 55:49:45
INDEX 01 55:51:25
TRACK 17 AUDIO
TITLE "Charlie Hunter: More Than This"
PERFORMER "Norah Jones"
REM COMPOSER ""
INDEX 01 63:27:51
TRACK 18 AUDIO
TITLE "M. Ward: Blue Bayou"
PERFORMER "Norah Jones"
REM COMPOSER ""
INDEX 00 67:38:30
INDEX 01 67:39:74
TRACK 19 AUDIO
TITLE "Wyclef Jean: Any Other Day"
PERFORMER "Norah Jones"
REM COMPOSER ""
INDEX 00 71:24:34
INDEX 01 71:25:19
[свернуть]

Лог проверки качества

AUDIOCHECKER v2.0 beta (build 457) - by Dester - [Ссылки могут видеть только зарегистрированные и активированные пользователи.]
[Only registered and activated users can see links.]
~~~~~~~~~~~~~~~~~~~~~~~~~~~~~~~~~~
-=== НЕ РЕДАКТИРУЙТЕ ЭТОТ ФАЙЛ! ===-

Путь: ...\2010 - ...Featuring Norah Jones [TOCP-701881]

1 -=- Norah Jones - Featuring Norah Jones.flac -=- CDDA (100%)

205676388
[свернуть]

Спектр частот

[свернуть]

Скачать Norah Jones - ...Featuring Norah Jones

[Ссылки могут видеть только зарегистрированные и активированные пользователи.]
[Only registered and activated users can see links.]

password: sergych
[свернуть]

Контрольная сумма (хеш-сумма) архива

MD5: a6149043b0c4de0afb46d120f221c22b
[свернуть]
My opinion of release: 10/10
__________________
TAIFUN.Wings of Soul

Вверх
5 пользователя(ей) сказали cпасибо:
burnett_s (22.07.2019), johnsilver (20.07.2019), Lighting1981 (24.07.2019), swint68 (20.07.2019), TAIFUN (18.07.2019)
Похожие темы
Тема Автор Раздел Ответов Последнее сообщение
Альбом Norah Jones - Feels Like Home sergych Jazz и Blues 0 01.05.2014 11:21
Norah Jones (Нора Джонс) МУЗЫКА Jazz [FAQ] 0 12.05.2008 12:15


Метки
...featuring norah jones , 2010 , blues rock , contemporary jazz , country rock , folk rock , indie rock , norah jones , piano blues , pop rock

Опции темы

Ваши права в разделе
Вы не можете создавать новые темы
Вы не можете отвечать в темах
Вы не можете прикреплять вложения
Вы не можете редактировать свои сообщения

Быстрый переход




Текущее время: 01:43. Часовой пояс GMT +3.
Powered by vBulletin® Version 3.8.10
Copyright ©2000 - 2019, vBulletin Solutions, Inc. Перевод: zCarot
© 2008 - 2019 Taifun With Song
Яндекс.Метрика