TAIFUN With Song
Навигация
Country Кантри объединяет две разновидности американского фольклора — это музыка белых поселенцев, обосновавшихся в Новом Свете в XVII—XVIII вв. и ковбойские баллады Дикого Запада. В этой музыке сильно наследие елизаветинских мадригалов, ирландской и шотландской народной музыки. Основные музыкальные инструменты этого стиля — гитара, банджо и скрипка.

А знаете ли Вы, что...
Какой рок-вокалист ещё в школьные годы откусил себе кусочек языка?
«Характерному тембру своего голоса солист Rolling Stones Мик Джаггер отчасти обязан баскетболу, которым он увлекался в школе. На одном из матчей Мик с такой силой врезался в соперника, что откусил себе кусочек языка. После этого он не говорил неделю, а когда заговорил, то понял, что голос изменился.»
 
Опции темы

  #1
Старый 15.09.2015, 18:46
sergych
Координатор
Досье
 
Аватар для sergych
Релиз Kacey Musgraves - Same Trailer Different Park


2013 - Kacey Musgraves - Same Trailer Different Park




Исполнитель/Artist: Kacey Musgraves
Альбом/Album: Same Trailer Different Park
Год/Year: 2013
Жанр/Genre: Country, rockabilly, pop rock
Страна/Country: Канада
Рекорд-лейбл/Record label: Mercury Records / Universal Music
Номер в каталоге/Catalogue #: B001802902
Формат/Format: Free Lossless Audio Codec (*.flac)
Качество/Quality: Lossless
Тип рипа/RIP Type: image+.cue
Продолжительность/Length: 00:40:18
Источник/Source: Собственный рип
Размер/Size: 326.2 MB

Сканы в комплекте

Треклист

01. Silver Lining [0:03:50.70]
02. My House [0:02:42.15]
03. Merry Go 'Round [0:03:28.54]
04. Dandelion [0:03:04.30]
05. Blowin' Smoke [0:03:08.60]
06. I Miss You [0:03:50.13]
07. Step Off [0:03:03.02]
08. Back on the Map [0:04:06.18]
09. Keep It to Yourself [0:03:17.25]
10. Stupid [0:02:38.53]
11. Follow Your Arrow [0:03:21.01]
12. It Is What It Is [0:03:46.21]
[свернуть]

youtube.com

[свернуть]

Исполнители/Performers

Kacey Musgraves — vocals, acoustic guitar, harmonica, whistling
Kree Harrison, Natalie Hemby, Shane McAnally — background vocals
Misa Arriaga — acoustic guitar, ukulele, background vocals
Bucky Baxter — pedal steel guitar
Fred Eltringham — drums, tambourine, foot stomping
Claire Indie — cello
Luke Laird — electric guitar, acoustic guitar, background vocals
Dave LeVita, J. T. Corenflos, John Mcfee — electric guitar
Josh Osborne — acoustic guitar, background vocals
Russ Pahl — pedal steel guitar
Kyle Ryan — electric guitar, background vocals
Hannah Schroeder — cello
Jimmie Lee Sloas — bass guitar
Matt Stanfield — keyboards, Wurlitzer
Ilya Toshinsky — electric guitar, acoustic guitar, banjo, resonator guitar
John Henry Trinko — accordion
[свернуть]

EAC лог

Exact Audio Copy V1.0 beta 3 from 29. August 2011

EAC extraction logfile from 14. September 2015, 19:31

Kacey Musgraves / Same Trailer Different Park

Used drive : ATAPI iHAS124 D Adapter: 0 ID: 2

Read mode : Secure
Utilize accurate stream : Yes
Defeat audio cache : Yes
Make use of C2 pointers : No

Read offset correction : 6
Overread into Lead-In and Lead-Out : No
Fill up missing offset samples with silence : Yes
Delete leading and trailing silent blocks : No
Null samples used in CRC calculations : Yes
Used interface : Installed external ASPI interface

Used output format : User Defined Encoder
Selected bitrate : 1024 kBit/s
Quality : High
Add ID3 tag : No
Command line compressor : C:\Program Files (x86)\Exact Audio Copy\Flac\flac.exe
Additional command line options : -6 -V -T "ARTIST=%artist%" -T "TITLE=%title%" -T "ALBUM=%albumtitle%" -T "DATE=%year%" -T "TRACKNUMBER=%tracknr%" -T "GENRE=%genre%" -T "COMMENT=%comment%" -T "BAND=%albuminterpret%" -T "COMPOSER=%composer%" %haslyrics%--tag-from-file=LYRICS="%lyricsfile%"%haslyrics% -T "DISCNUMBER=%cdnumber%" -T "TOTALDISCS=%totalcds%" -T "TOTALTRACKS=%numtracks%" %hascover%--picture="%coverfile%"%hascover% %source% -o %dest%


TOC of the extracted CD

Track | Start | Length | Start sector | End sector
---------------------------------------------------------
1 | 0:00.00 | 3:50.70 | 0 | 17319
2 | 3:50.70 | 2:42.15 | 17320 | 29484
3 | 6:33.10 | 3:28.54 | 29485 | 45138
4 | 10:01.64 | 3:04.30 | 45139 | 58968
5 | 13:06.19 | 3:08.60 | 58969 | 73128
6 | 16:15.04 | 3:50.13 | 73129 | 90391
7 | 20:05.17 | 3:03.02 | 90392 | 104118
8 | 23:08.19 | 4:06.18 | 104119 | 122586
9 | 27:14.37 | 3:17.25 | 122587 | 137386
10 | 30:31.62 | 2:38.53 | 137387 | 149289
11 | 33:10.40 | 3:21.01 | 149290 | 164365
12 | 36:31.41 | 3:46.21 | 164366 | 181336


Range status and errors

Selected range

Filename C:\mm\Kacey Musgraves\2013 - Same Trailer Different Park [B001802902]\Kacey Musgraves - Same Trailer Different Park.wav

Peak level 99.9 %
Extraction speed 8.5 X
Range quality 100.0 %
Test CRC 4DDF360F
Copy CRC 4DDF360F
Copy OK

No errors occurred


AccurateRip summary

Track 1 accurately ripped (confidence 6) [F0BDDAB3] (AR v2)
Track 2 accurately ripped (confidence 6) [753DB735] (AR v2)
Track 3 accurately ripped (confidence 6) [F7E0F2A4] (AR v2)
Track 4 accurately ripped (confidence 6) [C3C1B6DD] (AR v2)
Track 5 accurately ripped (confidence 6) [93C00262] (AR v2)
Track 6 accurately ripped (confidence 6) [78315B37] (AR v2)
Track 7 accurately ripped (confidence 6) [7E10A713] (AR v2)
Track 8 accurately ripped (confidence 6) [A51328DD] (AR v2)
Track 9 accurately ripped (confidence 6) [3307772A] (AR v2)
Track 10 accurately ripped (confidence 6) [E6F35C2D] (AR v2)
Track 11 accurately ripped (confidence 6) [47B51BB4] (AR v2)
Track 12 accurately ripped (confidence 6) [1C4D22E6] (AR v2)

All tracks accurately ripped

End of status report
[свернуть]

Файл CUE

REM GENRE Country
REM DATE 2013
REM DISCID AB09710C
REM COMMENT "ExactAudioCopy v1.0b3"
PERFORMER "Kacey Musgraves"
TITLE "Same Trailer Different Park"
FILE "Kacey Musgraves - Same Trailer Different Park.flac" WAVE
TRACK 01 AUDIO
TITLE "Silver Lining"
PERFORMER "Kacey Musgraves"
INDEX 01 00:00:00
TRACK 02 AUDIO
TITLE "My House"
PERFORMER "Kacey Musgraves"
INDEX 00 03:50:55
INDEX 01 03:50:70
TRACK 03 AUDIO
TITLE "Merry Go 'Round"
PERFORMER "Kacey Musgraves"
INDEX 00 06:31:34
INDEX 01 06:33:10
TRACK 04 AUDIO
TITLE "Dandelion"
PERFORMER "Kacey Musgraves"
INDEX 00 10:00:02
INDEX 01 10:01:64
TRACK 05 AUDIO
TITLE "Blowin' Smoke"
PERFORMER "Kacey Musgraves"
INDEX 00 13:04:23
INDEX 01 13:06:19
TRACK 06 AUDIO
TITLE "I Miss You"
PERFORMER "Kacey Musgraves"
INDEX 00 16:14:48
INDEX 01 16:15:04
TRACK 07 AUDIO
TITLE "Step Off"
PERFORMER "Kacey Musgraves"
INDEX 00 20:05:03
INDEX 01 20:05:17
TRACK 08 AUDIO
TITLE "Back on the Map"
PERFORMER "Kacey Musgraves"
INDEX 00 23:07:68
INDEX 01 23:08:19
TRACK 09 AUDIO
TITLE "Keep It to Yourself"
PERFORMER "Kacey Musgraves"
INDEX 01 27:14:37
TRACK 10 AUDIO
TITLE "Stupid"
PERFORMER "Kacey Musgraves"
INDEX 00 30:30:40
INDEX 01 30:31:62
TRACK 11 AUDIO
TITLE "Follow Your Arrow"
PERFORMER "Kacey Musgraves"
INDEX 00 33:08:65
INDEX 01 33:10:40
TRACK 12 AUDIO
TITLE "It Is What It Is"
PERFORMER "Kacey Musgraves"
INDEX 00 36:30:13
INDEX 01 36:31:41
[свернуть]

Лог проверки качества

AUDIOCHECKER v2.0 beta (build 457) - by Dester -
~~~~~~~~~~~~~~~~~~~~~~~~~~~~~~~~~~
-=== НЕ РЕДАКТИРУЙТЕ ЭТОТ ФАЙЛ! ===-

Путь: ...\2013 - Same Trailer Different Park [B001802902]

1 -=- Kacey Musgraves - Same Trailer Different Park.flac -=- CDDA (100%)

216736740
[свернуть]

Спектр частот

[свернуть]

Скачать Kacey Musgraves - Same Trailer Different Park



password: sergych
[свернуть]
My opinion of release: 10/10
__________________
TAIFUN.Wings of Soul

Вверх
Похожие темы
Тема Автор Раздел Ответов Последнее сообщение
Релиз Trailer Trash Tracys - Ester PUPOKIN Indie Rock 0 23.12.2011 09:13
Сборник Gorky Park - The Best sergych Russian Rock 0 26.09.2010 17:48
Релиз Park Ji Won - Lastentrusting LUСIAN Instrumental 0 16.10.2009 19:11
Альбом Gorky Park - Gorky Park 2. Moscow Calling sergych Russian Rock 0 26.04.2009 07:37
Audio Park DarkDan Psychedelic 0 29.04.2008 21:21


Метки
2013 , country , kacey musgraves , pop rock , rockabilly , same trailer different park

Опции темы

Ваши права в разделе
Вы не можете создавать новые темы
Вы не можете отвечать в темах
Вы не можете прикреплять вложения
Вы не можете редактировать свои сообщения

Быстрый переход



Текущее время: 02:47. Часовой пояс GMT +3.
Powered by vBulletin® Version 3.8.10
Copyright ©2000 - 2018, vBulletin Solutions, Inc. Перевод: zCarot
© 2008 - 2018 Taifun With Song
Яндекс.Метрика