TAIFUN With Song
Навигация
Вернуться   TAIFUN With Song > Music (обменник) > Rock > Progressive Rock
Расширенный поиск
Progressive Rock Единственной универсальной характеристикой прогрессивного рока является усложнение музыкальной формы. Это проявляется в удлиннении и усложнении музыкальных пьес, тяготении к циклическим формам академической музыки; расширении репертуара используемых тембров, усложнении метра и ритма, использовании нетрадиционных для рока мелодических и гармонических решений; поэзии, уходящей от тем развлекательной музыки и тяготеющей к философским «вечным темам», фантастической и фентезийной тематике; переплетении с классической и современной академической музыкой, джазом.

А знаете ли Вы, что...
Каким образом Эдит Пиаф помогала бежать из немецких лагерей французским военнопленным?
«Французская певица Эдит Пиаф в период оккупации выступала в лагерях для военнопленных на территории Германии, после которых фотографировалась на память с ними и немецкими офицерами. Затем в Париже лица военнопленных вырезали и вклеивали в фальшивые документы. Пиаф ехала в лагерь с повторным визитом и тайно провозила эти паспорта, с которыми некоторым пленным удавалось бежать.»
 
Опции темы

  #1
Старый 26.06.2010, 12:20
sergych
Координатор
Досье
 
Аватар для sergych
Релиз The Alan Parsons Project - Eye In The Sky

1982 - Eye In The Sky



Исполнитель/Artist: The Alan Parsons Project
Альбом/Album: Eye In The Sky
Год/Year: 1982
Издатель/Label: Arista Records
Жанр/Genre: Art rock / Progressive rock
Формат/Format: mp3 CBR
Качество/Quality: 320 kbps JStereo
Размер/Size: 94.2 MB
Продолжительность/Length: 00:42:27

сканы Covers и CD в комплекте

Треклист

01 - "Sirius" (instrumental)
02 - "Eye in the Sky" (lead vocal Eric Woolfson)
03 - "Children of the Moon" (lead vocal David Paton)
04 - "Gemini" (lead vocal Chris Rainbow)
05 - "Silence and I" (lead vocal Eric Woolfson)
06 - "You're Gonna Get Your Fingers Burned" (lead vocal Lenny Zakatek)
07 - "Psychobabble" (lead vocal Elmer Gantry)
08 - "Mammagamma" (instrumental)
09 - "Step By Step" (lead vocal Lenny Zakatek)
10 - "Old And Wise" (lead vocal Colin Blunstone)
[свернуть]
Все треки содержат текст и обложку

Скачать




Pass: sergych
[свернуть]


My opinion of release: 10/10
Release info RInfo

All tracks written by Alan Parsons and Eric Woolfson
__________________
TAIFUN.Wings of Soul


Последний раз редактировалось sergych, 10.08.2014 в 00:27. Причина: перезаливка
Вверх
Пользователь сказал cпасибо:
VladislavUdalov (11.06.2017)
  #2
Старый 26.06.2010, 12:46
sergych
Координатор
Досье
 
Аватар для sergych
Thumbs up

1982(2008) - Eye In The Sky (Expanded Edition)



Исполнитель/Artist: The Alan Parsons Project
Альбом/Album: Eye In The Sky (Expanded Edition)
Год/Year: 1982 (2008 remastered and reissued with bonus tracks)
Издатель/Label: Arista Records / SONY BMG
Жанр/Genre: Art rock / Progressive rock
Формат/Format: mp3 CBR
Качество/Quality: 320 kbps JStereo
Размер/Size: 214 MB
Продолжительность/Length: 01:17:10

Hi-Res сканы Covers, Booklet и CD в комплекте

Треклист

01 - "Sirius" (instrumental)
02 - "Eye in the Sky" (lead vocal Eric Woolfson)
03 - "Children of the Moon" (lead vocal David Paton)
04 - "Gemini" (lead vocal Chris Rainbow)
05 - "Silence and I" (lead vocal Eric Woolfson)
06 - "You're Gonna Get Your Fingers Burned" (lead vocal Lenny Zakatek)
07 - "Psychobabble" (lead vocal Elmer Gantry)
08 - "Mammagamma" (instrumental)
09 - "Step By Step" (lead vocal Lenny Zakatek)
10 - "Old And Wise" (lead vocal Colin Blunstone)

Bonus
11 - "Sirius" (demo)
12 - "Old And Wise" (Eric Woolfson vocal)
13 - "Any Other Day" (studio demo)
14 - "Silence And I" (Eric Woolfson vocal)
15 - "The Naked Eye"
16 - "Eye Pieces" (Classical Naked Eye)
[свернуть]

Скачать




Pass: sergych
[свернуть]


My opinion of release: 10/10
Release info RInfo

Концепция альбома и история названия

Альбом с музыкальной точки зрения

Популярность альбома

Eye in the Sky в СССР

Eye in the Sky 25th Anniversary Edition
__________________
TAIFUN.Wings of Soul


Последний раз редактировалось sergych, 10.08.2014 в 00:19. Причина: перезаливка
Вверх
2 пользователя(ей) сказали cпасибо:
TAIFUN (27.06.2010), VladislavUdalov (11.06.2017)
  #3
Старый 30.06.2013, 16:31
aheron
Релизёр
Досье
 
Аватар для aheron
По умолчанию The Alan Parsons Project - Eye in the Sky


The Alan Parsons Project - Eye in the Sky (1982) [1995, Japan]





Исполнитель/Artist: The Alan Parsons Project
Альбом/Album: Eye in the Sky
Год/Year: 1982
Ремастеринг/Remaster: 1995
Жанр/Genre: Rock, Art Rock, Progressive Rock
Страна/Country: UK
Рекорд-лейбл/Record label: BMG Victor Inc., Arista. Made in Japan.
Номер в каталоге/Catalogue #: BVCA-7356
Формат/Format: Free Lossless Audio Codec (*.flac)
Качество/Quality: Lossless
Тип рипа/RIP Type: image+.cue
Продолжительность/Length: 00:42:38
Источник/Source: Из интернета
Размер/Size: 386 MB

Сканы в комплекте

Треклист:

01. The Alan Parsons Project - Sirius [1:56]
02. The Alan Parsons Project - Eye in the Sky [4:37]
03. The Alan Parsons Project - Children of the Moon [4:52]
04. The Alan Parsons Project - Gemini [2:12]
05. The Alan Parsons Project - Silence and I [7:20]
06. The Alan Parsons Project - You're Gonna Get Your Fingers Burned [4:24]
07. The Alan Parsons Project - Psychobabble [4:52]
08. The Alan Parsons Project - Mammagamma [3:36]
09. The Alan Parsons Project - Step By Step [3:55]
10. The Alan Parsons Project - Old and Wise [4:56]
-------------------------------------------
Total time: [42:38]
[свернуть]

EAC лог

Exact Audio Copy V0.99 prebeta 5 from 4. May 2009

EAC extraction logfile from 24. July 2010, 17:35

The Alan Parsons Project / Eye in the Sky

Used drive : PLEXTOR DVDR PX-716A Adapter: 0 ID: 0

Read mode : Secure
Utilize accurate stream : Yes
Defeat audio cache : Yes
Make use of C2 pointers : No

Read offset correction : 30
Overread into Lead-In and Lead-Out : Yes
Fill up missing offset samples with silence : Yes
Delete leading and trailing silent blocks : No
Null samples used in CRC calculations : Yes
Used interface : Native Win32 interface for Win NT & 2000

Used output format : User Defined Encoder
Selected bitrate : 1024 kBit/s
Quality : High
Add ID3 tag : No
Command line compressor : C:\Program Files (x86)\FLAC\flac.exe
Additional command line options : -8 -V -T "ARTIST=%a" -T "TITLE=%t" -T "ALBUM=%g" -T "DATE=%y" -T "TRACKNUMBER=%n" -T "GENRE=%m" -T "COMMENT=EAC FLAC -8" %s


TOC of the extracted CD

Track | Start | Length | Start sector | End sector
---------------------------------------------------------
1 | 0:00.37 | 1:56.10 | 37 | 8746
2 | 1:56.47 | 4:37.00 | 8747 | 29521
3 | 6:33.47 | 4:51.38 | 29522 | 51384
4 | 11:25.10 | 2:11.40 | 51385 | 61249
5 | 13:36.50 | 7:20.00 | 61250 | 94249
6 | 20:56.50 | 4:23.60 | 94250 | 114034
7 | 25:20.35 | 4:52.02 | 114035 | 135936
8 | 30:12.37 | 3:35.40 | 135937 | 152101
9 | 33:48.02 | 3:54.38 | 152102 | 169689
10 | 37:42.40 | 4:55.72 | 169690 | 191886


Range status and errors

Selected range

Filename E:\mtorrent_flac\The Alan Parsons Project - Eye In The Sky (Japan)\The Alan Parsons Project - Eye in the Sky.wav

Peak level 100.0 %
Range quality 100.0 %
Test CRC 8C61365E
Copy CRC 8C61365E
Copy OK

No errors occurred


AccurateRip summary

Track 1 not present in database
Track 2 not present in database
Track 3 not present in database
Track 4 not present in database
Track 5 not present in database
Track 6 not present in database
Track 7 not present in database
Track 8 not present in database
Track 9 not present in database
Track 10 not present in database

None of the tracks are present in the AccurateRip database

End of status report
[свернуть]

Лог проверки качества

-----------------------

DON'T MODIFY THIS FILE

-----------------------

PERFORMER: auCDtect Task Manager, ver. 1.6.0 RC1 build 1.6.0.1
Copyright (c) 2008-2010 y-soft. All rights reserved


ANALYZER: auCDtect: CD records authenticity detector, version 0.8.2
Copyright (c) 2004 Oleg Berngardt. All rights reserved.
Copyright (c) 2004 Alexander Djourik. All rights reserved.


FILE: The Alan Parsons Project - Eye in the Sky.flac
Size: 274069491 Hash: 1088BA417815242BF295B03A366289F8 Accuracy: -m0
Conclusion: CDDA 100%
Signature: 6E5B6584B2119A0BDFEE76F434BCB601AE20236C
[свернуть]

Спектр частот

[свернуть]

Скачать The Alan Parsons Project - Eye in the Sky

Яндекс.Диск

password: aheron
[свернуть]


Последний раз редактировалось sergych, 30.06.2013 в 16:40. Причина: добавил треклист
Вверх
2 пользователя(ей) сказали cпасибо:
sergych (30.06.2013), VladislavUdalov (11.06.2017)
  #4
Старый 20.09.2015, 10:46
sergych
Координатор
Досье
 
Аватар для sergych
Релиз The Alan Parsons Project - Eye in the Sky


1983 - The Alan Parsons Project - Eye in the Sky




Исполнитель/Artist: The Alan Parsons Project
Альбом/Album: Eye in the Sky
Год/Year: 1983
Жанр/Genre: Rock, Art Rock, Progressive Rock
Страна/Country: Германия
Рекорд-лейбл/Record label: Arista Records
Номер в каталоге/Catalogue #: 258 718
Формат/Format: Free Lossless Audio Codec (*.flac)
Качество/Quality: Lossless
Тип рипа/RIP Type: image+.cue
Продолжительность/Length: 00:42:35
Источник/Source: Собственный рип
Размер/Size: 264.6 MB

Сканы в комплекте

Треклист

01. Sirius [0:01:53.40]
02. Eye In The Sky [0:04:36.50]
03. Children Of The Moon [0:04:51.02]
04. Gemini [0:02:11.23]
05. Silence And I [0:07:23.37]
06. You're Gonna Get Your Fingers Burned [0:04:23.25]
07. Psychobabble [0:04:51.10]
08. Mammagamma [0:03:35.23]
09. Step By Step [0:03:54.12]
10. Old And Wise [0:04:54.53]
[свернуть]

youtube.com

[свернуть]

Исполнители/Performers

Chris Rainbow: main vocal (Track 4)
Lenny Zakatek: main vocal (Tracks 6 & 9)
Dave Terry: main vocal (Track 7)
Eric Woolfson: keyboards, main vocal (Tracks 2 & 5)
Colin Blunstone: main vocal (Track 10)
The English Chorale: choir vocals
Alan Parsons: keyboards, Fairlight programming, vocals
David Paton: acoustic, electric & bass guitars, main vocal (Track 3)
Ian Bairnson: acoustic & electric guitars
Mel Collins: saxophone
Stuart Elliott: drums, percussion
[свернуть]

EAC лог

Exact Audio Copy V1.0 beta 3 from 29. August 2011

EAC extraction logfile from 18. September 2015, 20:40

The Alan Parsons Project / Eye In The Sky

Used drive : ATAPI iHAS124 D Adapter: 0 ID: 2

Read mode : Secure
Utilize accurate stream : Yes
Defeat audio cache : Yes
Make use of C2 pointers : No

Read offset correction : 6
Overread into Lead-In and Lead-Out : No
Fill up missing offset samples with silence : Yes
Delete leading and trailing silent blocks : No
Null samples used in CRC calculations : Yes
Used interface : Installed external ASPI interface

Used output format : User Defined Encoder
Selected bitrate : 1024 kBit/s
Quality : High
Add ID3 tag : No
Command line compressor : C:\Program Files (x86)\Exact Audio Copy\Flac\flac.exe
Additional command line options : -6 -V -T "ARTIST=%artist%" -T "TITLE=%title%" -T "ALBUM=%albumtitle%" -T "DATE=%year%" -T "TRACKNUMBER=%tracknr%" -T "GENRE=%genre%" -T "COMMENT=%comment%" -T "BAND=%albuminterpret%" -T "COMPOSER=%composer%" %haslyrics%--tag-from-file=LYRICS="%lyricsfile%"%haslyrics% -T "DISCNUMBER=%cdnumber%" -T "TOTALDISCS=%totalcds%" -T "TOTALTRACKS=%numtracks%" %hascover%--picture="%coverfile%"%hascover% %source% -o %dest%


TOC of the extracted CD

Track | Start | Length | Start sector | End sector
---------------------------------------------------------
1 | 0:00.33 | 1:53.40 | 33 | 8547
2 | 1:53.73 | 4:36.50 | 8548 | 29297
3 | 6:30.48 | 4:51.02 | 29298 | 51124
4 | 11:21.50 | 2:11.23 | 51125 | 60972
5 | 13:32.73 | 7:23.37 | 60973 | 94234
6 | 20:56.35 | 4:23.25 | 94235 | 113984
7 | 25:19.60 | 4:51.10 | 113985 | 135819
8 | 30:10.70 | 3:35.23 | 135820 | 151967
9 | 33:46.18 | 3:54.12 | 151968 | 169529
10 | 37:40.30 | 4:54.53 | 169530 | 191632


Range status and errors

Selected range

Filename C:\mm\The Alan Parsons Project\1983 - Eye In The Sky [258 718]\The Alan Parsons Project - Eye In The Sky.wav

Peak level 95.5 %
Extraction speed 2.9 X
Range quality 99.9 %
Test CRC ED3267A2
Copy CRC ED3267A2
Copy OK

No errors occurred


AccurateRip summary

Track 1 accurately ripped (confidence 32) [1F0FFDE6] (AR v2)
Track 2 accurately ripped (confidence 32) [30EE5814] (AR v2)
Track 3 accurately ripped (confidence 32) [96DD008E] (AR v2)
Track 4 accurately ripped (confidence 32) [A27AABF2] (AR v2)
Track 5 accurately ripped (confidence 32) [B22BDA40] (AR v2)
Track 6 accurately ripped (confidence 32) [B4EF3CA9] (AR v2)
Track 7 accurately ripped (confidence 32) [5DEC49DB] (AR v2)
Track 8 accurately ripped (confidence 32) [3702069E] (AR v2)
Track 9 accurately ripped (confidence 32) [590612A2] (AR v2)
Track 10 accurately ripped (confidence 31) [BB2EB3DD] (AR v2)

All tracks accurately ripped

End of status report
[свернуть]

Файл CUE

REM GENRE "Progressive Rock"
REM DATE 1983
REM DISCID 7209FB0A
REM COMMENT "ExactAudioCopy v1.0b3"
PERFORMER "The Alan Parsons Project"
TITLE "Eye In The Sky"
FILE "The Alan Parsons Project - Eye In The Sky.flac" WAVE
TRACK 01 AUDIO
TITLE "Sirius"
PERFORMER "The Alan Parsons Project"
INDEX 00 00:00:00
INDEX 01 00:00:33
TRACK 02 AUDIO
TITLE "Eye In The Sky"
PERFORMER "The Alan Parsons Project"
INDEX 01 01:53:73
TRACK 03 AUDIO
TITLE "Children Of The Moon"
PERFORMER "The Alan Parsons Project"
INDEX 00 06:30:35
INDEX 01 06:30:48
TRACK 04 AUDIO
TITLE "Gemini"
PERFORMER "The Alan Parsons Project"
INDEX 00 11:21:49
INDEX 01 11:21:50
TRACK 05 AUDIO
TITLE "Silence And I"
PERFORMER "The Alan Parsons Project"
INDEX 01 13:32:73
TRACK 06 AUDIO
TITLE "You're Gonna Get Your Fingers Burned"
PERFORMER "The Alan Parsons Project"
INDEX 00 20:55:68
INDEX 01 20:56:35
TRACK 07 AUDIO
TITLE "Psychobabble"
PERFORMER "The Alan Parsons Project"
INDEX 01 25:19:60
TRACK 08 AUDIO
TITLE "Mammagamma"
PERFORMER "The Alan Parsons Project"
INDEX 01 30:10:70
TRACK 09 AUDIO
TITLE "Step By Step"
PERFORMER "The Alan Parsons Project"
INDEX 00 33:45:33
INDEX 01 33:46:18
TRACK 10 AUDIO
TITLE "Old And Wise"
PERFORMER "The Alan Parsons Project"
INDEX 00 37:40:06
INDEX 01 37:40:30
[свернуть]

Лог проверки качества

AUDIOCHECKER v2.0 beta (build 457) - by Dester -
~~~~~~~~~~~~~~~~~~~~~~~~~~~~~~~~~~
-=== НЕ РЕДАКТИРУЙТЕ ЭТОТ ФАЙЛ! ===-

Путь: ...\1983 - Eye In The Sky [258 718]

1 -=- The Alan Parsons Project - Eye In The Sky.flac -=- MPEG (95%)

244891012
[свернуть]

Спектр частот

[свернуть]

Скачать The Alan Parsons Project - Eye in the Sky



password: sergych
[свернуть]
My opinion of release: 10/10
__________________
TAIFUN.Wings of Soul

Вверх
2 пользователя(ей) сказали cпасибо:
TAIFUN (27.09.2015), VladislavUdalov (11.06.2017)
Похожие темы
Тема Автор Раздел Ответов Последнее сообщение
Live The Alan Parsons Project - Eye 2 Eye sergych Progressive Rock 0 15.08.2010 09:57
Альбом The Alan Parsons Project - EVE sergych Progressive Rock 0 24.06.2010 21:08
Альбом The Alan Parsons Project - On Air PUPOKIN Art Rock 0 15.04.2009 14:06
Альбом The Alan Parsons Project - Try Anything Once PUPOKIN Art Rock 0 13.04.2009 13:13
Инфо The Alan Parsons Project sergych Rock [FAQ] 0 07.09.2008 10:38


Метки
1983 , art rock , eye in the sky , parsons , progressive rock , rock , the alan parsons project

Опции темы

Ваши права в разделе
Вы не можете создавать новые темы
Вы не можете отвечать в темах
Вы не можете прикреплять вложения
Вы не можете редактировать свои сообщения

Быстрый переход



Текущее время: 15:43. Часовой пояс GMT +3.
Powered by vBulletin® Version 3.8.10
Copyright ©2000 - 2017, vBulletin Solutions, Inc. Перевод: zCarot
© 2008 - 2017 Taifun With Song
Яндекс.Метрика