TAIFUN With Song
Навигация
Jazz и Blues Гибкая ритмика, импровизационное начало, гармонии и мелодии - все это Jazz. Blues - жизнеутверждающая музыка, рожденная из душевной боли

А знаете ли Вы, что...
Кто написал чёрный квадрат за четверть века до Малевича?
«Французский писатель и юморист Альфонс Алле за четверть века до Казимира Малевича написал чёрный квадрат — картину под названием «Битва негров в пещере глубокой ночью». Также он почти на семьдесят лет предвосхитил минималистическую музыкальную пьесу из одной тишины «4’33"» Джона Кейджа своим аналогичным произведением «Траурный марш для похорон великого глухого».»
 
Опции темы

  #1
Старый 13.01.2009, 00:02
sergych
Координатор
Досье
 
Аватар для sergych
По умолчанию Tom Waits - Sleepin At Drew’s House

1976 - Sleepin At Drew’s House



Исполнитель/Artist: Tom Waits
Альбом/Album: Sleepin At Drew’s House (Live in Cleveland)
Год/Year: 1976
Жанр/Genre: Jazz / Blues / Rock
Формат/Format: mp3 CBR
Качество/Quality: 320 kbps JStereo
Размер/Size: 132.1 MB
Продолжительность/Length: 00:56:01

Треклист

01 - Pasties & G-Strings
02 - Heart Of Saturday Night
03 - Emotional Weather Report
04 - Invitation To Blues
05 - New Coat Of Paint
06 - Diamonds On The Windshield
07 - Waltzing Mathilda
[свернуть]

Скачать



Pass: sergych
[свернуть]
My opinion of release: 10/10
__________________
TAIFUN.Wings of Soul


Последний раз редактировалось sergych, 16.01.2010 в 15:50. Причина: перезаливка
Вверх
  #2
Старый 30.12.2017, 22:08
sergych
Координатор
Досье
 
Аватар для sergych
Релиз Re: Tom Waits - Sleepin At Drew’s House


1976 - Tom Waits - Sleepin At Drew’s House




Исполнитель/Artist: Tom Waits
Альбом/Album: Sleepin At Drew’s House (Live in Cleveland)
Год/Year: 1976
Жанр/Genre: Rock, Blues Rock
Формат/Format: WavPack (*.wv)
Качество/Quality: Lossless
Тип рипа/RIP Type: image+.cue
Продолжительность/Length: 00:56:01
Источник/Source: Из интернета
Размер/Size: 299.0 MB

Сканы в комплекте

Треклист

01. Pasties & G-Strings [21:08]
02. Heart Of Saturday Night [6:03]
03. Emotional Weather Report [6:37]
04. Invitation To Blues [4:09]
05. New Coat Of Paint [2:37]
06. Diamonds On The Windshield [6:39]
07. Waltzing Mathilda [8:49]
[свернуть]

youtube.com

[свернуть]

EAC лог

Отчёт EAC об извлечении, выполненном 21. февраля 2008, 0:26 для диска:
Tom Waits / Sleep At Drew's House

Дисковод: MATSHITAUJ-832D Adapter: 0 ID: 0
Режим чтения: Достоверный (C2: нет, Точный поток: да, Отключение кэша: да)
Комбинированное смещение чтения/записи: 102
Способность читать области Lead-in и Lead-out : Нет

Выходной формат: Внутренние WAV-операции
44.100 Гц; 16 бит; стерео

Другие параметры:
Заполнение пропущенных сэмплов тишиной : Да
Удаление блоков с тишиной в начале и конце : Нет
Встроенный Win32-интерфейс для Win NT/2000


Характеристики диапазона извлечения и сообщения об ошибках
Выбранный диапазон
Имя файла D:\Документы Томин\Моя музыка\Tom Waits - Sleep At Drew's House.wav

Пиковый уровень 96.6 %
Качество диапазона 100.0 %
CRC 5422AC76
Копирование... OK

Ошибок не произошло

Конец отчёта
[свернуть]

Файл CUE

REM DATE 1976
REM GENRE Blues
REM DISCID 5F0D2107
REM COMMENT "ExactAudioCopy v0.95b4"
PERFORMER "Tom Waits"
TITLE "Sleepin At Drew's House"
FILE "Tom Waits - Sleepin At Drew's House.wav" WAVE
TRACK 01 AUDIO
TITLE "Pasties & G-Strings"
PERFORMER "Tom Waits"
INDEX 01 00:00:00
TRACK 02 AUDIO
TITLE "Heart Of Saturday Night"
PERFORMER "Tom Waits"
INDEX 01 21:07:45
TRACK 03 AUDIO
TITLE "Emotional Weather Report"
PERFORMER "Tom Waits"
INDEX 01 27:10:45
TRACK 04 AUDIO
TITLE "Invitation To Blues"
PERFORMER "Tom Waits"
INDEX 01 33:47:50
TRACK 05 AUDIO
TITLE "New Coat Of Paint"
PERFORMER "Tom Waits"
INDEX 01 37:56:15
TRACK 06 AUDIO
TITLE "Diamonds On The Windshield"
PERFORMER "Tom Waits"
INDEX 01 40:33:07
TRACK 07 AUDIO
TITLE "Waltzing Mathilda"
PERFORMER "Tom Waits"
INDEX 01 47:12:02
[свернуть]

Скачать Tom Waits - Sleepin At Drew’s House



password: sergych
[свернуть]

Контрольная сумма (хеш-сумма) архива

MD5: 6251006731bf906b7d810bfc4a4a2df6
[свернуть]
My opinion of release: 10/10

Release info RInfo

Бутлег выступления в Кливленде, в 1976 году.
Рип утащен 9 лет назад с тогдашней "подлодки"
__________________
TAIFUN.Wings of Soul

Вверх
2 пользователя(ей) сказали cпасибо:
johnsilver (31.12.2017), swint68 (30.12.2017)
  #3
Старый 31.12.2017, 01:28
johnsilver
Меломан
Досье
 
Аватар для johnsilver
По умолчанию Re: Tom Waits - Sleepin At Drew’s House

Спасибо, интересный раритет...

Только с форматом что то не то, - в архиве оказался Wav-файл и cue под Wav, которые Фубар2000 воспроизводить отказался. Методом тыка пришлось... - после переименования Wav в Wv в обоих файлах, всё стало воспроизводиться и опознаваться. Так что, всё нормально.

Пользуясь случаем, поздравляю всю команду сайта с наступающими Новым Годом и Рождеством!
Здоровья Всем, успехов и процветания!!!

Вверх
Пользователь сказал cпасибо:
sergych (31.12.2017)
  #4
Старый 31.12.2017, 11:17
swint68
Меломан
Досье
 
Аватар для swint68
По умолчанию Re: Tom Waits - Sleepin At Drew’s House

Всех с Новым годом!
Здоровья, счастья и удачи Вам и Вашим близки!!

Вверх
Пользователь сказал cпасибо:
sergych (31.12.2017)
  #5
Старый 31.12.2017, 20:22
sergych
Координатор
Досье
 
Аватар для sergych
По умолчанию Re: Tom Waits - Sleepin At Drew’s House

johnsilver, спасибо. Расширение и *.cue исправил, архив перезалил.
Foobar'ом не пользуюсь, а AIMP пережёвывает всё "на ура", потому косяк сразу не заметил.
С Наступающим!

swint68, взаимно, с Праздником!
__________________
TAIFUN.Wings of Soul

Вверх
Пользователь сказал cпасибо:
johnsilver (01.01.2018)
Похожие темы
Тема Автор Раздел Ответов Последнее сообщение
Релиз Drew Seeley - The Resolution PUPOKIN Pop Rock 0 21.04.2011 10:29
VA Into House: Soulful and Funky House Collection PUPOKIN House 0 27.03.2011 09:37
VA Rocking Down The House - Electrified House Tunes Volume 2 PUPOKIN House 0 30.01.2011 09:47
Сборник Kontor House of House - Winter Edition 2010 PUPOKIN House 0 30.10.2009 10:07
Сборник Tom Waits & Friends - The Ghost Of Tom Waits sergych Jazz и Blues 0 24.01.2009 00:19


Метки
1976 , blues , blues rock , jazz , rock , sleepin at drew’s house (live in cleveland) , tom waits , блюз , джаз

Опции темы

Ваши права в разделе
Вы не можете создавать новые темы
Вы не можете отвечать в темах
Вы не можете прикреплять вложения
Вы не можете редактировать свои сообщения

Быстрый переход



Текущее время: 10:16. Часовой пояс GMT +3.
Powered by vBulletin® Version 3.8.10
Copyright ©2000 - 2018, vBulletin Solutions, Inc. Перевод: zCarot
© 2008 - 2018 Taifun With Song
Яндекс.Метрика