TAIFUN With Song
Навигация
Jazz и Blues Гибкая ритмика, импровизационное начало, гармонии и мелодии - все это Jazz. Blues - жизнеутверждающая музыка, рожденная из душевной боли

А знаете ли Вы, что...
Что поётся в самой короткой в мире песне?
«Песня английской группы Napalm Death "You Suffer" длится 1,316 секунды и считается самой короткой в мире. В ней поётся только одна фраза: "You suffer — but why?" («Вы страдаете — но зачем?»), и её очень трудно разобрать. Сначала песня была издана на альбоме Scum, а в 1989 году как сингл на отдельном диске.»
 
Опции темы

  #1
Старый 06.09.2016, 23:04
sergych
Координатор
Досье
 
Аватар для sergych
Релиз Kim Waters - All Because Of You


1990 - Kim Waters - All Because Of You




Исполнитель/Artist: Kim Waters
Альбом/Album: All Because Of You
Год/Year: 1990
Жанр/Genre: Smooth jazz
Страна/Country: Германия
Рекорд-лейбл/Record label: Bellaphon Records / Interpress
Номер в каталоге/Catalogue #: 290-18-006
Формат/Format: Free Lossless Audio Codec (*.flac)
Качество/Quality: Lossless
Тип рипа/RIP Type: image+.cue
Продолжительность/Length: 00:49:38
Источник/Source: Собственный рип
Размер/Size: 345.9 MB

Сканы в комплекте

Треклист

01. After The Romance [0:05:07.37]
02. All Because Of You [0:04:57.00]
03. On The Move [0:05:26.38]
04. Nikita [0:05:16.37]
05. Just Be My Lady [0:04:46.00]
06. Pleasure Interlude [0:01:06.63]
07. Pleasure [0:04:16.12]
08. Baby, Say You Love Me [0:04:44.00]
09. Sitting On The Dock Of The Bay [0:04:08.38]
10. Captive Moments [0:05:03.00]
11. I Never Think Of You [0:04:46.22]
[свернуть]

youtube.com

[свернуть]

EAC лог

Exact Audio Copy V1.2 from 12. August 2016

EAC extraction logfile from 6. September 2016, 23:23

Kim Waters / All Because Of You

Used drive : PLEXTOR DVDR PX-716A Adapter: 1 ID: 0

Read mode : Secure
Utilize accurate stream : Yes
Defeat audio cache : Yes
Make use of C2 pointers : No

Read offset correction : 30
Overread into Lead-In and Lead-Out : No
Fill up missing offset samples with silence : Yes
Delete leading and trailing silent blocks : No
Null samples used in CRC calculations : Yes
Used interface : Native Win32 interface for Win NT & 2000

Used output format : User Defined Encoder
Selected bitrate : 1024 kBit/s
Quality : High
Add ID3 tag : No
Command line compressor : C:\Program Files (x86)\Exact Audio Copy\FLAC\FLAC.EXE
Additional command line options : -6 -V -T "ARTIST=%artist%" -T "TITLE=%title%" -T "ALBUM=%albumtitle%" -T "DATE=%year%" -T "TRACKNUMBER=%tracknr%" -T "GENRE=%genre%" -T "COMMENT=%comment%" -T "BAND=%albuminterpret%" -T "ALBUMARTIST=%albuminterpret%" -T "COMPOSER=%composer%" %haslyrics%--tag-from-file=LYRICS="%lyricsfile%"%haslyrics% -T "DISCNUMBER=%cdnumber%" -T "TOTALDISCS=%totalcds%" -T "TOTALTRACKS=%numtracks%" %hascover%--picture="%coverfile%"%hascover% %source% -o %dest%


TOC of the extracted CD

Track | Start | Length | Start sector | End sector
---------------------------------------------------------
1 | 0:00.00 | 5:07.37 | 0 | 23061
2 | 5:07.37 | 4:57.00 | 23062 | 45336
3 | 10:04.37 | 5:26.38 | 45337 | 69824
4 | 15:31.00 | 5:16.37 | 69825 | 93561
5 | 20:47.37 | 4:46.00 | 93562 | 115011
6 | 25:33.37 | 1:06.63 | 115012 | 120024
7 | 26:40.25 | 4:16.12 | 120025 | 139236
8 | 30:56.37 | 4:44.00 | 139237 | 160536
9 | 35:40.37 | 4:08.38 | 160537 | 179174
10 | 39:49.00 | 5:03.00 | 179175 | 201899
11 | 44:52.00 | 4:46.22 | 201900 | 223371


Range status and errors

Selected range

Filename C:\mm\Kim Waters\1990 - All Because Of You [290-18-006]\Kim Waters - All Because Of You.wav

Peak level 100.0 %
Extraction speed 12.3 X
Range quality 100.0 %
Test CRC 5113C5B4
Copy CRC 5113C5B4
Copy OK

No errors occurred


AccurateRip summary

Track 1 accurately ripped (confidence 2) [4C76ED16] (AR v2)
Track 2 accurately ripped (confidence 2) [0B3D2228] (AR v2)
Track 3 accurately ripped (confidence 2) [63A13922] (AR v2)
Track 4 accurately ripped (confidence 2) [DE6BE9DE] (AR v2)
Track 5 accurately ripped (confidence 2) [60B0F80D] (AR v2)
Track 6 accurately ripped (confidence 2) [C8182D57] (AR v2)
Track 7 accurately ripped (confidence 2) [A4F4D424] (AR v2)
Track 8 accurately ripped (confidence 2) [DA0EB8E1] (AR v2)
Track 9 accurately ripped (confidence 2) [19A7965D] (AR v2)
Track 10 accurately ripped (confidence 2) [0A2644A0] (AR v2)
Track 11 accurately ripped (confidence 2) [B1DF0499] (AR v2)

All tracks accurately ripped

End of status report

---- CUETools DB Plugin V2.1.6

[CTDB TOCID: nW6wATwp1iXPi6s4PDJSrSGo_Y0-] found
Submit result: nW6wATwp1iXPi6s4PDJSrSGo_Y0- has been confirmed
Track | CTDB Status
1 | (2/2) Accurately ripped
2 | (2/2) Accurately ripped
3 | (2/2) Accurately ripped
4 | (2/2) Accurately ripped
5 | (2/2) Accurately ripped
6 | (2/2) Accurately ripped
7 | (2/2) Accurately ripped
8 | (2/2) Accurately ripped
9 | (2/2) Accurately ripped
10 | (2/2) Accurately ripped
11 | (2/2) Accurately ripped
[свернуть]

Файл CUE

REM GENRE Jazz
REM DATE 1995
REM DISCID 930BA20B
REM COMMENT "ExactAudioCopy v1.2"
PERFORMER "Kim Waters"
TITLE "All Because Of You"
REM COMPOSER ""
FILE "Kim Waters - All Because Of You.flac" WAVE
TRACK 01 AUDIO
TITLE "After The Romance"
PERFORMER "Kim Waters"
REM COMPOSER ""
INDEX 01 00:00:00
TRACK 02 AUDIO
TITLE "All Because Of You"
PERFORMER "Kim Waters"
REM COMPOSER ""
INDEX 00 05:06:55
INDEX 01 05:07:37
TRACK 03 AUDIO
TITLE "On The Move"
PERFORMER "Kim Waters"
REM COMPOSER ""
INDEX 00 10:03:62
INDEX 01 10:04:37
TRACK 04 AUDIO
TITLE "Nikita"
PERFORMER "Kim Waters"
REM COMPOSER ""
INDEX 00 15:30:17
INDEX 01 15:31:00
TRACK 05 AUDIO
TITLE "Just Be My Lady"
PERFORMER "Kim Waters"
REM COMPOSER ""
INDEX 00 20:46:57
INDEX 01 20:47:37
TRACK 06 AUDIO
TITLE "Pleasure Interlude"
PERFORMER "Kim Waters"
REM COMPOSER ""
INDEX 00 25:32:57
INDEX 01 25:33:37
TRACK 07 AUDIO
TITLE "Pleasure"
PERFORMER "Kim Waters"
REM COMPOSER ""
INDEX 00 26:39:35
INDEX 01 26:40:25
TRACK 08 AUDIO
TITLE "Baby, Say You Love Me"
PERFORMER "Kim Waters"
REM COMPOSER ""
INDEX 00 30:56:05
INDEX 01 30:56:37
TRACK 09 AUDIO
TITLE "Sitting On The Dock Of The Bay"
PERFORMER "Kim Waters"
REM COMPOSER ""
INDEX 00 35:39:65
INDEX 01 35:40:37
TRACK 10 AUDIO
TITLE "Captive Moments"
PERFORMER "Kim Waters"
REM COMPOSER ""
INDEX 00 39:48:25
INDEX 01 39:49:00
TRACK 11 AUDIO
TITLE "I Never Think Of You"
PERFORMER "Kim Waters"
REM COMPOSER ""
INDEX 00 44:51:20
INDEX 01 44:52:00
[свернуть]

Лог проверки качества

AUDIOCHECKER v2.0 beta (build 457) - by Dester -
~~~~~~~~~~~~~~~~~~~~~~~~~~~~~~~~~~
-=== НЕ РЕДАКТИРУЙТЕ ЭТОТ ФАЙЛ! ===-

Путь: ...\1990 - All Because Of You [290-18-006]

1 -=- Kim Waters - All Because Of You.flac -=- MPEG (95%)

99449924
[свернуть]

Спектр частот

[свернуть]

Скачать Kim Waters - All Because Of You



password: sergych

CRC md5: 92472036a8f0417e765e9ddca2517539
[свернуть]
My opinion of release: 10/10
__________________
TAIFUN.Wings of Soul


Последний раз редактировалось sergych, 19.01.2018 в 13:22. Причина: перезалито
Вверх
3 пользователя(ей) сказали cпасибо:
Показать список поблагодаривших
Похожие темы
Тема Автор Раздел Ответов Последнее сообщение
Сингл Bee Gees - Still Waters (Run Deep) sergych Зарубежная Поп-Музыка 0 21.05.2016 19:16
Альбом Kim Waters - Silver Soul sergych Jazz и Blues 0 19.05.2016 22:28
Альбом The Sweet - Waters Edge sergych Pop Rock 4 21.08.2013 21:09
Релиз Kingdom Come - Rendered Waters PUPOKIN Hard Rock 0 07.04.2011 09:22
Релиз Alan Waters - REинкарнация PUPOKIN Industrial Metal 0 08.10.2010 08:47


Метки
1990 , all because of you , kim waters , smooth jazz

Опции темы

Ваши права в разделе
Вы не можете создавать новые темы
Вы не можете отвечать в темах
Вы не можете прикреплять вложения
Вы не можете редактировать свои сообщения

Быстрый переход



Текущее время: 06:56. Часовой пояс GMT +3.
Powered by vBulletin® Version 3.8.10
Copyright ©2000 - 2018, vBulletin Solutions, Inc. Перевод: zCarot
© 2008 - 2018 Taifun With Song
Яндекс.Метрика