TAIFUN With Song
Навигация
А знаете ли Вы, что...
Влияние скрипки на пауков!
«Если заиграть перед пауками на скрипке, то они выйдут из своих укрытий!»
 
Опции темы

  #1
Старый 16.05.2018, 11:40
sergych
Координатор
Досье
 
Аватар для sergych
Релиз Mariah Carey - The Ballads


2009 - Mariah Carey - The Ballads




Исполнитель/Artist: Mariah Carey
Альбом/Album: The Ballads
Год/Year: 2009
Жанр/Genre: R&B, soul, pop, ballads
Страна/Country: Соединённые Штаты
Рекорд-лейбл/Record label: Columbia / Virgin
Номер в каталоге/Catalogue #: 88697 41303 2
Формат/Format: Free Lossless Audio Codec (*.flac)
Качество/Quality: Lossless
Тип рипа/RIP Type: image+.cue
Продолжительность/Length: 01:15:55
Источник/Source: Собственный рип
Размер/Size: 528.3 MB

Сканы в комплекте

Треклист

01. Hero [0:04:20.08]
02. One Sweet Day (with Boyz II Men) [0:04:42.69]
03. Vision of Love [0:03:30.41]
04. Without You [0:03:35.52]
05. Can't Let Go [0:04:27.53]
06. Love Takes Time [0:03:48.59]
07. I'll Be There (feat. Trey Lorenz) [0:04:44.56]
08. Thank God I Found You (Make It Last Remix) (feat. Nas & Joe) [0:05:09.74]
09. Endless Love (feat. Luther Vandross) [0:04:21.57]
10. I Still Believe [0:03:56.43]
11. My All [0:03:52.45]
12. The Roof (Back in Time) [0:05:15.25]
13. When You Believe (with Whitney Houston) [0:04:34.66]
14. Anytime You Need a Friend [0:04:27.19]
15. Always Be My Baby [0:04:19.50]
16. Dreamlover [0:03:54.45]
17. How Much (feat. Usher) [0:03:30.55]
18. Reflections (Care Enough) [0:03:21.12]
[свернуть]

youtube.com

[свернуть]

EAC лог

Exact Audio Copy V1.3 from 2. September 2016

EAC extraction logfile from 10. May 2018, 19:39

Mariah Carey / The Ballads

Used drive : ATAPI iHAS124 D Adapter: 0 ID: 2

Read mode : Secure
Utilize accurate stream : Yes
Defeat audio cache : Yes
Make use of C2 pointers : No

Read offset correction : 6
Overread into Lead-In and Lead-Out : No
Fill up missing offset samples with silence : Yes
Delete leading and trailing silent blocks : No
Null samples used in CRC calculations : Yes
Used interface : Installed external ASPI interface

Used output format : User Defined Encoder
Selected bitrate : 1024 kBit/s
Quality : High
Add ID3 tag : No
Command line compressor : C:\Program Files (x86)\Exact Audio Copy\Flac\flac.exe
Additional command line options : -6 -V -T "ARTIST=%artist%" -T "TITLE=%title%" -T "ALBUM=%albumtitle%" -T "DATE=%year%" -T "TRACKNUMBER=%tracknr%" -T "GENRE=%genre%" -T "COMMENT=%comment%" -T "BAND=%albuminterpret%" -T "ALBUMARTIST=%albuminterpret%" -T "COMPOSER=%composer%" %haslyrics%--tag-from-file=LYRICS="%lyricsfile%"%haslyrics% -T "DISCNUMBER=%cdnumber%" -T "TOTALDISCS=%totalcds%" -T "TOTALTRACKS=%numtracks%" %hascover%--picture="%coverfile%"%hascover% %source% -o %dest%


TOC of the extracted CD

Track | Start | Length | Start sector | End sector
---------------------------------------------------------
1 | 0:00.00 | 4:20.08 | 0 | 19507
2 | 4:20.08 | 4:42.69 | 19508 | 40726
3 | 9:03.02 | 3:30.41 | 40727 | 56517
4 | 12:33.43 | 3:35.52 | 56518 | 72694
5 | 16:09.20 | 4:27.53 | 72695 | 92772
6 | 20:36.73 | 3:48.59 | 92773 | 109931
7 | 24:25.57 | 4:44.56 | 109932 | 131287
8 | 29:10.38 | 5:09.74 | 131288 | 154536
9 | 34:20.37 | 4:21.57 | 154537 | 174168
10 | 38:42.19 | 3:56.43 | 174169 | 191911
11 | 42:38.62 | 3:52.45 | 191912 | 209356
12 | 46:31.32 | 5:15.25 | 209357 | 233006
13 | 51:46.57 | 4:34.66 | 233007 | 253622
14 | 56:21.48 | 4:27.19 | 253623 | 273666
15 | 60:48.67 | 4:19.50 | 273667 | 293141
16 | 65:08.42 | 3:54.45 | 293142 | 310736
17 | 69:03.12 | 3:30.55 | 310737 | 326541
18 | 72:33.67 | 3:21.12 | 326542 | 341628


Range status and errors

Selected range

Filename C:\mm\Mariah Carey\2009 - The Ballads [88697 41303 2]\Mariah Carey - The Ballads.wav

Peak level 100.0 %
Extraction speed 2.1 X
Range quality 99.9 %
Test CRC B7DB9987
Copy CRC B7DB9987
Copy OK

No errors occurred

End of status report

---- CUETools DB Plugin V2.1.6

[CTDB TOCID: cF2ss6Cj5TomnOmeDSKhvY7xNKA-] found
Submit result: cF2ss6Cj5TomnOmeDSKhvY7xNKA- has been confirmed
Track | CTDB Status
1 | (56/56) Accurately ripped
2 | (56/56) Accurately ripped
3 | (56/56) Accurately ripped
4 | (56/56) Accurately ripped
5 | (56/56) Accurately ripped
6 | (56/56) Accurately ripped
7 | (56/56) Accurately ripped
8 | (56/56) Accurately ripped
9 | (56/56) Accurately ripped
10 | (56/56) Accurately ripped
11 | (56/56) Accurately ripped
12 | (55/56) Accurately ripped
13 | (56/56) Accurately ripped
14 | (56/56) Accurately ripped
15 | (56/56) Accurately ripped
16 | (56/56) Accurately ripped
17 | (55/56) Accurately ripped
18 | (56/56) Accurately ripped
[свернуть]

Файл CUE

REM GENRE Pop
REM DATE 2009
REM DISCID F911CB12
REM COMMENT "ExactAudioCopy v1.3"
PERFORMER "Mariah Carey"
TITLE "The Ballads"
REM COMPOSER ""
FILE "Mariah Carey - The Ballads.flac" WAVE
TRACK 01 AUDIO
TITLE "Hero"
PERFORMER "Mariah Carey"
REM COMPOSER ""
INDEX 01 00:00:00
TRACK 02 AUDIO
TITLE "One Sweet Day"
PERFORMER "Mariah Carey with Boyz II Men"
REM COMPOSER ""
INDEX 00 04:18:41
INDEX 01 04:20:08
TRACK 03 AUDIO
TITLE "Vision of Love"
PERFORMER "Mariah Carey"
REM COMPOSER ""
INDEX 00 09:01:58
INDEX 01 09:03:02
TRACK 04 AUDIO
TITLE "Without You"
PERFORMER "Mariah Carey"
REM COMPOSER ""
INDEX 00 12:32:54
INDEX 01 12:33:43
TRACK 05 AUDIO
TITLE "Can't Let Go"
PERFORMER "Mariah Carey"
REM COMPOSER ""
INDEX 00 16:07:66
INDEX 01 16:09:20
TRACK 06 AUDIO
TITLE "Love Takes Time"
PERFORMER "Mariah Carey"
REM COMPOSER ""
INDEX 00 20:36:32
INDEX 01 20:36:73
TRACK 07 AUDIO
TITLE "I'll Be There"
PERFORMER "Mariah Carey feat. Trey Lorenz"
REM COMPOSER ""
INDEX 01 24:25:57
TRACK 08 AUDIO
TITLE "Thank God I Found You (Make It Last Remix)"
PERFORMER "Mariah Carey feat. Nas & Joe"
REM COMPOSER ""
INDEX 00 29:09:30
INDEX 01 29:10:38
TRACK 09 AUDIO
TITLE "Endless Love"
PERFORMER "Mariah Carey feat. Luther Vandross"
REM COMPOSER ""
INDEX 00 34:19:60
INDEX 01 34:20:37
TRACK 10 AUDIO
TITLE "I Still Believe"
PERFORMER "Mariah Carey"
REM COMPOSER ""
INDEX 00 38:40:72
INDEX 01 38:42:19
TRACK 11 AUDIO
TITLE "My All"
PERFORMER "Mariah Carey"
REM COMPOSER ""
INDEX 00 42:37:12
INDEX 01 42:38:62
TRACK 12 AUDIO
TITLE "The Roof (Back in Time)"
PERFORMER "Mariah Carey"
REM COMPOSER ""
INDEX 00 46:30:18
INDEX 01 46:31:32
TRACK 13 AUDIO
TITLE "When You Believe"
PERFORMER "Mariah Carey with Whitney Houston"
REM COMPOSER ""
INDEX 00 51:46:11
INDEX 01 51:46:57
TRACK 14 AUDIO
TITLE "Anytime You Need a Friend"
PERFORMER "Mariah Carey"
REM COMPOSER ""
INDEX 00 56:20:72
INDEX 01 56:21:48
TRACK 15 AUDIO
TITLE "Always Be My Baby"
PERFORMER "Mariah Carey"
REM COMPOSER ""
INDEX 00 60:48:24
INDEX 01 60:48:67
TRACK 16 AUDIO
TITLE "Dreamlover"
PERFORMER "Mariah Carey"
REM COMPOSER ""
INDEX 00 65:07:60
INDEX 01 65:08:42
TRACK 17 AUDIO
TITLE "How Much (feat. Usher)"
PERFORMER "Mariah Carey"
REM COMPOSER ""
INDEX 00 69:02:55
INDEX 01 69:03:12
TRACK 18 AUDIO
TITLE "Reflections (Care Enough)"
PERFORMER "Mariah Carey"
REM COMPOSER ""
INDEX 00 72:33:32
INDEX 01 72:33:67
[свернуть]

Лог проверки качества

AUDIOCHECKER v2.0 beta (build 457) - by Dester -
~~~~~~~~~~~~~~~~~~~~~~~~~~~~~~~~~~
-=== НЕ РЕДАКТИРУЙТЕ ЭТОТ ФАЙЛ! ===-

Путь: ...\2009 - The Ballads [88697 41303 2]

1 -=- Mariah Carey - The Ballads.flac -=- CDDA (100%)

118147972
[свернуть]

Спектр частот

[свернуть]

Скачать Mariah Carey - The Ballads



password: sergych
[свернуть]

Контрольная сумма (хеш-сумма) архива

MD5: 5ab722ce15711abfb6913cc53603f1a2
[свернуть]
My opinion of release: 10/10
__________________
TAIFUN.Wings of Soul

Вверх
3 пользователя(ей) сказали cпасибо:
Показать список поблагодаривших
  #2
Старый 17.05.2018, 20:27
swint68
Меломан
Досье
 
Аватар для swint68
По умолчанию Re: Mariah Carey - The Ballads

Супер!

Вверх
2 пользователя(ей) сказали cпасибо:
sergych (17.05.2018), TAIFUN (18.05.2018)
Похожие темы
Тема Автор Раздел Ответов Последнее сообщение
Сборник Mariah Carey - #1's sergych R&B 1 14.10.2017 22:35
Live Mariah Carey - Without You sergych R&B 4 25.07.2017 21:07
Альбом Mariah Carey - Me. I Am Mariah... The Elusive Chanteuse sergych R&B 1 08.05.2017 19:35
Альбом Mariah Carey - Mariah Carey sergych R&B 0 17.09.2015 19:37
Альбом Mariah Carey - E=MC2 LUСIAN R&B 0 19.04.2008 23:25


Метки
2009 , ballads , mariah carey , pop , r&b , soul , the ballads

Опции темы

Ваши права в разделе
Вы не можете создавать новые темы
Вы не можете отвечать в темах
Вы не можете прикреплять вложения
Вы не можете редактировать свои сообщения

Быстрый переход



Текущее время: 23:23. Часовой пояс GMT +3.
Powered by vBulletin® Version 3.8.10
Copyright ©2000 - 2018, vBulletin Solutions, Inc. Перевод: zCarot
© 2008 - 2018 Taifun With Song
Яндекс.Метрика