TAIFUN With Song
Навигация
Вернуться   TAIFUN With Song > Music (обменник) > POP > Зарубежная Поп-Музыка
Расширенный поиск
А знаете ли Вы, что...
Кто умеет определять музыку на пластинках без её прослушивания?
«Американский врач Артур Линтген обладает уникальной задокументированной способностью — он умеет определять классическое оркестровое музыкальное произведение на виниловой пластинке без её прослушивания. Сначала он по контурам и впадинам дорожки распознаёт места, где музыка тише или громче, а также длительность каждой части произведения, а затем сопоставляет результат с обширной базой знаний европейской классической музыки из своей головы. Способности Линтгена не безграничны — по его словам, он плохо определяет музыку добетховенской эпохи, так как она слишком однородна по своей структуре.»
 
Опции темы

  #1
Старый 14.05.2018, 18:08
sergych
Координатор
Досье
 
Аватар для sergych
Релиз Natasha Bedingfield - Unwritten


2004 - Natasha Bedingfield - Unwritten




Исполнитель/Artist: Natasha Bedingfield
Альбом/Album: Unwritten
Год/Year: 2004
Жанр/Genre: Pop, hip hop, soul, R&B
Страна/Country: Япония
Рекорд-лейбл/Record label: BMG Japan
Номер в каталоге/Catalogue #: BVCP-21434(82876-74837-2)
Формат/Format: Free Lossless Audio Codec (*.flac)
Качество/Quality: Lossless
Тип рипа/RIP Type: image+.cue
Продолжительность/Length: 00:56:55
Источник/Source: Собственный рип
Размер/Size: 404.6 MB

Сканы в комплекте

Треклист

01. These Words [0:03:36.26]
02. Single [0:03:55.09]
03. Unwritten [0:04:15.02]
04. Silent Movie [0:03:47.35]
05. Stumble [0:03:36.28]
06. Peace Of Me [0:03:42.67]
07. If You're Gonna... [0:03:20.70]
08. Drop Me In The Middle (Featuring Estelle) [0:03:43.45]
09. We're All Mad [0:04:44.50]
10. I Bruise Easily [0:04:13.30]
11. The One That Got Away [0:04:05.70]
12. Size Matters [0:03:25.45]
13. Wild Horses [0:10:27.60]
[свернуть]

youtube.com

[свернуть]

Исполнители/Performers

Natasha Bedingfield – primary artist, lead vocals, background vocals, songwriting, vocal arrangements
Keith Andes – additional keyboards ("Drop Me in the Middle")
Dave Catlin-Birch – bass ("Silent Movie")
Guy Chambers – guitar, keyboards, producer
Justin Clayton – bass ("Peace of Me")
Larry Corbett – cello ("Peace of Me")
Keith Crouch – Hammond B-3 organ ("Unwritten")
Paul Gordon – keyboards ("We're All Mad")
Nick Ingman – string arrangements, conductor
Patrick Leonard – music programming, keyboards ("Peace of Me")
David Low – cello ("Stumble")
Tim Pierce – guitar ("Peace of Me")
Robbie Campos – guitar, keyboards
Josephina Vergara, Michele Richards – violin ("Peace of Me")
Greg Wells – bass, guitar, piano, drums
Joey Waronker - drums ("Peace of Me")
Danielle Brisebois – background vocals ("Unwritten"), producer, vocal arrangements
Nikola Bedingfield, Jessica Collins – background vocals ("Unwritten" and "Drop Me in the Middle")
Ryan Collins – background vocals ("Unwritten")
J. Curtis – guitar ("Size Matters")
Nick Lashley – guitar, keyboards
Wayne Wilkins – piano, keyboards
Chris Brown – bass ("If You're Gonna...")
Paul Herman – guitar ("I Bruise Easily")
Wayne Rodrigues – keyboards, turntables
Andrew Frampton – guitar, keyboards, programming, producer, vocal arrangements, string arrangements
Simon Hill – drums ("If You're Gonna...")
Andrew Duckles – viola ("Peace of Me")
Tony Hodson – guitar ("Drop Me in the Middle")
Paul Stanborough – additional guitars ("Silent Movie")
[свернуть]

EAC лог

Exact Audio Copy V1.3 from 2. September 2016

EAC extraction logfile from 14. May 2018, 16:32

Natasha Bedingfield / Unwritten

Used drive : ATAPI iHAS124 D Adapter: 0 ID: 2

Read mode : Secure
Utilize accurate stream : Yes
Defeat audio cache : Yes
Make use of C2 pointers : No

Read offset correction : 6
Overread into Lead-In and Lead-Out : No
Fill up missing offset samples with silence : Yes
Delete leading and trailing silent blocks : No
Null samples used in CRC calculations : Yes
Used interface : Installed external ASPI interface

Used output format : User Defined Encoder
Selected bitrate : 1024 kBit/s
Quality : High
Add ID3 tag : No
Command line compressor : C:\Program Files (x86)\Exact Audio Copy\Flac\flac.exe
Additional command line options : -6 -V -T "ARTIST=%artist%" -T "TITLE=%title%" -T "ALBUM=%albumtitle%" -T "DATE=%year%" -T "TRACKNUMBER=%tracknr%" -T "GENRE=%genre%" -T "COMMENT=%comment%" -T "BAND=%albuminterpret%" -T "ALBUMARTIST=%albuminterpret%" -T "COMPOSER=%composer%" %haslyrics%--tag-from-file=LYRICS="%lyricsfile%"%haslyrics% -T "DISCNUMBER=%cdnumber%" -T "TOTALDISCS=%totalcds%" -T "TOTALTRACKS=%numtracks%" %hascover%--picture="%coverfile%"%hascover% %source% -o %dest%


TOC of the extracted CD

Track | Start | Length | Start sector | End sector
---------------------------------------------------------
1 | 0:00.00 | 3:36.26 | 0 | 16225
2 | 3:36.26 | 3:55.09 | 16226 | 33859
3 | 7:31.35 | 4:15.02 | 33860 | 52986
4 | 11:46.37 | 3:47.35 | 52987 | 70046
5 | 15:33.72 | 3:36.28 | 70047 | 86274
6 | 19:10.25 | 3:42.67 | 86275 | 102991
7 | 22:53.17 | 3:20.70 | 102992 | 118061
8 | 26:14.12 | 3:43.45 | 118062 | 134831
9 | 29:57.57 | 4:44.50 | 134832 | 156181
10 | 34:42.32 | 4:13.30 | 156182 | 175186
11 | 38:55.62 | 4:05.70 | 175187 | 193631
12 | 43:01.57 | 3:25.45 | 193632 | 209051
13 | 46:27.27 | 10:27.60 | 209052 | 256136


Range status and errors

Selected range

Filename C:\mm\Natasha Bedingfield\2004 - Unwritten [BVCP-21434(82876-74837-2)]\Natasha Bedingfield - Unwritten.wav

Peak level 100.0 %
Extraction speed 1.8 X
Range quality 100.0 %
Test CRC 2E82216F
Copy CRC 2E82216F
Copy OK

No errors occurred

End of status report

---- CUETools DB Plugin V2.1.6

[CTDB TOCID: cHD370LxVs_B4TycgbbsxmvGVow-] disk not present in database
Submit result: cHD370LxVs_B4TycgbbsxmvGVow- has been uploaded
[свернуть]

Файл CUE

REM GENRE Pop
REM DATE 2004
REM DISCID C80D570D
REM COMMENT "ExactAudioCopy v1.3"
PERFORMER "Natasha Bedingfield"
TITLE "Unwritten"
REM COMPOSER ""
FILE "Natasha Bedingfield - Unwritten.flac" WAVE
TRACK 01 AUDIO
TITLE "These Words"
PERFORMER "Natasha Bedingfield"
REM COMPOSER ""
INDEX 01 00:00:00
TRACK 02 AUDIO
TITLE "Single"
PERFORMER "Natasha Bedingfield"
REM COMPOSER ""
INDEX 01 03:36:26
TRACK 03 AUDIO
TITLE "Unwritten"
PERFORMER "Natasha Bedingfield"
REM COMPOSER ""
INDEX 01 07:31:35
TRACK 04 AUDIO
TITLE "Silent Movie"
PERFORMER "Natasha Bedingfield"
REM COMPOSER ""
INDEX 01 11:46:37
TRACK 05 AUDIO
TITLE "Stumble"
PERFORMER "Natasha Bedingfield"
REM COMPOSER ""
INDEX 01 15:33:72
TRACK 06 AUDIO
TITLE "Peace Of Me"
PERFORMER "Natasha Bedingfield"
REM COMPOSER ""
INDEX 01 19:10:25
TRACK 07 AUDIO
TITLE "If You're Gonna..."
PERFORMER "Natasha Bedingfield"
REM COMPOSER ""
INDEX 01 22:53:17
TRACK 08 AUDIO
TITLE "Drop Me In The Middle (Featuring Estelle)"
PERFORMER "Natasha Bedingfield"
REM COMPOSER ""
INDEX 01 26:14:12
TRACK 09 AUDIO
TITLE "We're All Mad"
PERFORMER "Natasha Bedingfield"
REM COMPOSER ""
INDEX 01 29:57:57
TRACK 10 AUDIO
TITLE "I Bruise Easily"
PERFORMER "Natasha Bedingfield"
REM COMPOSER ""
INDEX 01 34:42:32
TRACK 11 AUDIO
TITLE "The One That Got Away"
PERFORMER "Natasha Bedingfield"
REM COMPOSER ""
INDEX 01 38:55:62
TRACK 12 AUDIO
TITLE "Size Matters"
PERFORMER "Natasha Bedingfield"
REM COMPOSER ""
INDEX 01 43:01:57
TRACK 13 AUDIO
TITLE "Wild Horses"
PERFORMER "Natasha Bedingfield"
REM COMPOSER ""
INDEX 01 46:27:27
[свернуть]

Спектр частот

[свернуть]

Скачать Natasha Bedingfield - Unwritten



password: sergych
[свернуть]

Контрольная сумма (хеш-сумма) архива

MD5: 4fca6c57ef56fe944373722e86cf772c
[свернуть]
My opinion of release: 10/10

Release info RInfo

японец отличается иным порядком треков. 13-й трек состоит из самого Wild Horses (3:58),затем пауза в 3 минуты и затем песня Sojourn (3:16)
__________________
TAIFUN.Wings of Soul

Вверх
2 пользователя(ей) сказали cпасибо:
johnsilver (14.05.2018), swint68 (15.05.2018)
  #2
Старый 15.05.2018, 20:49
swint68
Меломан
Досье
 
Аватар для swint68
По умолчанию Re: Natasha Bedingfield - Unwritten

Большое спасибо за качество!!!

Вверх
Пользователь сказал cпасибо:
sergych (16.05.2018)
Похожие темы
Тема Автор Раздел Ответов Последнее сообщение
Альбом Natasha Bedingfield - N.B. sergych Зарубежная Поп-Музыка 1 05.11.2017 08:16
Альбом Natasha Bedingfield - Pocketful Of Sunshine sergych Зарубежная Поп-Музыка 2 29.09.2017 18:54
Релиз Natasha Bedingfield - Strip Me Away PUPOKIN Зарубежная Поп-Музыка 0 15.05.2011 08:22
Альбом Unwritten Law - Live And Lawless PUPOKIN Alternative Rock 0 24.05.2009 08:39
Natasha Rostova PUPOKIN House 0 13.10.2008 10:10


Метки
2004 , hip hop , natasha bedingfield , pop , r&b , soul , unwritten

Опции темы

Ваши права в разделе
Вы не можете создавать новые темы
Вы не можете отвечать в темах
Вы не можете прикреплять вложения
Вы не можете редактировать свои сообщения

Быстрый переход



Текущее время: 07:19. Часовой пояс GMT +3.
Powered by vBulletin® Version 3.8.10
Copyright ©2000 - 2018, vBulletin Solutions, Inc. Перевод: zCarot
© 2008 - 2018 Taifun With Song
Яндекс.Метрика