TAIFUN With Song
Навигация
А знаете ли Вы, что...
Какая песня группы «Ария» одноимённа девизу итальянских фашистов?
«"Воля и разум" — это девиз итальянских фашистов. Авторы одноимённой песни группы "Ария" об этом не знали, равно как не знали и члены худсовета, одобрившие запись песни для пластинки.»
 
Опции темы

  #1
Старый 28.12.2013, 14:40
sergych
Координатор
Досье
 
Аватар для sergych
Релиз Annie Lennox - Medusa


1995 - Annie Lennox - Medusa




Исполнитель/Artist: Annie Lennox
Альбом/Album: Medusa
Год/Year: 1995
Жанр/Genre: Pop, Adult contemporary, Alternative Rock, Funk Rock
Страна/Country: Соединённые Штаты
Рекорд-лейбл/Record label: Arista / BMG
Номер в каталоге/Catalogue #: 74321-25717-2
Формат/Format: Free Lossless Audio Codec (*.flac)
Качество/Quality: Lossless
Тип рипа/RIP Type: image+.cue
Продолжительность/Length: 00:46:31
Источник/Source: Собственный рип
Размер/Size: 335.2 MB

Сканы в комплекте

Треклист

01. No More "I Love You's" [0:04:52.70]
02. Take Me to the River [0:03:33.20]
03. A Whiter Shade of Pale [0:05:16.48]
04. Don't Let It Bring You Down [0:03:38.57]
05. Train in Vain [0:04:44.35]
06. I Can't Get Next to You [0:03:08.60]
07. Downtown Lights [0:06:44.48]
08. Thin Line Between Love and Hate [0:04:55.12]
09. Waiting in Vain [0:05:40.60]
10. Something So Right [0:03:56.40]
[свернуть]

youtube.com

[свернуть]

Исполнители/Performers

Annie Lennox - vocals, flute, keyboards
Tony Pastor - guitar
Kirampal Singh - santoor
Judd Lander, Mark Feltham - harmonica
James McNally - accordion
Marius De Vries - keyboards
Peter-John Vettese, Andy Richards, Matthew Cooper - keyboards
Doug Wimbish - bass
Dann Gillen, Neil Conti - drums
Pandit Dinesh - tabla
Louis Jardim - percussion, bass
Stephen Lipson - guitar, keyboards, bass
[свернуть]

EAC лог

Exact Audio Copy V1.0 beta 3 from 29. August 2011

EAC extraction logfile from 28. December 2013, 16:09

Annie Lennox / Medusa

Used drive : ATAPI iHAS124 D Adapter: 0 ID: 2

Read mode : Secure
Utilize accurate stream : Yes
Defeat audio cache : Yes
Make use of C2 pointers : Yes

Read offset correction : 6
Overread into Lead-In and Lead-Out : No
Fill up missing offset samples with silence : Yes
Delete leading and trailing silent blocks : No
Null samples used in CRC calculations : Yes
Used interface : Installed external ASPI interface

Used output format : User Defined Encoder
Selected bitrate : 1024 kBit/s
Quality : High
Add ID3 tag : No
Command line compressor : C:\Program Files (x86)\Exact Audio Copy\Flac\flac.exe
Additional command line options : -6 -V -T "ARTIST=%artist%" -T "TITLE=%title%" -T "ALBUM=%albumtitle%" -T "DATE=%year%" -T "TRACKNUMBER=%tracknr%" -T "GENRE=%genre%" -T "COMMENT=%comment%" -T "BAND=%albuminterpret%" -T "COMPOSER=%composer%" %haslyrics%--tag-from-file=LYRICS="%lyricsfile%"%haslyrics% -T "DISCNUMBER=%cdnumber%" -T "TOTALDISCS=%totalcds%" -T "TOTALTRACKS=%numtracks%" %hascover%--picture="%coverfile%"%hascover% %source% -o %dest%


TOC of the extracted CD

Track | Start | Length | Start sector | End sector
---------------------------------------------------------
1 | 0:00.00 | 4:52.70 | 0 | 21969
2 | 4:52.70 | 3:33.20 | 21970 | 37964
3 | 8:26.15 | 5:16.48 | 37965 | 61712
4 | 13:42.63 | 3:38.57 | 61713 | 78119
5 | 17:21.45 | 4:44.35 | 78120 | 99454
6 | 22:06.05 | 3:08.60 | 99455 | 113614
7 | 25:14.65 | 6:44.48 | 113615 | 143962
8 | 31:59.38 | 4:55.12 | 143963 | 166099
9 | 36:54.50 | 5:40.60 | 166100 | 191659
10 | 42:35.35 | 3:56.40 | 191660 | 209399


Range status and errors

Selected range

Filename C:\mm\Annie Lennox\1995 - Medusa [74321-25717-2]\Annie Lennox - Medusa.wav

Peak level 99.6 %
Extraction speed 12.6 X
Range quality 100.0 %
Test CRC 1EDF8D9C
Copy CRC 1EDF8D9C
Copy OK

No errors occurred


AccurateRip summary

Track 1 accurately ripped (confidence 40) [DD7D5B2B] (AR v2)
Track 2 accurately ripped (confidence 40) [4B5B3793] (AR v2)
Track 3 accurately ripped (confidence 41) [BCEE998A] (AR v2)
Track 4 accurately ripped (confidence 41) [E015A750] (AR v2)
Track 5 accurately ripped (confidence 40) [3083A06E] (AR v2)
Track 6 accurately ripped (confidence 40) [CB74F9E2] (AR v2)
Track 7 accurately ripped (confidence 40) [09AE275B] (AR v2)
Track 8 accurately ripped (confidence 38) [CB918BBD] (AR v2)
Track 9 accurately ripped (confidence 41) [51250192] (AR v2)
Track 10 accurately ripped (confidence 40) [FC17265E] (AR v2)

All tracks accurately ripped

End of status report
[свернуть]

Файл CUE

REM DATE 1995
REM DISCID 7A0AE80A
REM COMMENT "ExactAudioCopy v1.0b3"
PERFORMER "Annie Lennox"
TITLE "Medusa"
FILE "Annie Lennox - Medusa.flac" WAVE
TRACK 01 AUDIO
TITLE "No More 'I Love You's'"
PERFORMER "Annie Lennox"
INDEX 01 00:00:00
TRACK 02 AUDIO
TITLE "Take Me to the River"
PERFORMER "Annie Lennox"
INDEX 00 04:50:63
INDEX 01 04:52:70
TRACK 03 AUDIO
TITLE "A Whiter Shade of Pale"
PERFORMER "Annie Lennox"
INDEX 00 08:26:13
INDEX 01 08:26:15
TRACK 04 AUDIO
TITLE "Don't Let It Bring You Down"
PERFORMER "Annie Lennox"
INDEX 00 13:42:55
INDEX 01 13:42:63
TRACK 05 AUDIO
TITLE "Train in Vain"
PERFORMER "Annie Lennox"
INDEX 00 17:20:38
INDEX 01 17:21:45
TRACK 06 AUDIO
TITLE "I Can't Get Next to You"
PERFORMER "Annie Lennox"
INDEX 00 22:05:00
INDEX 01 22:06:05
TRACK 07 AUDIO
TITLE "Downtown Lights"
PERFORMER "Annie Lennox"
INDEX 00 25:14:45
INDEX 01 25:14:65
TRACK 08 AUDIO
TITLE "Thin Line Between Love and Hate"
PERFORMER "Annie Lennox"
INDEX 00 31:58:38
INDEX 01 31:59:38
TRACK 09 AUDIO
TITLE "Waiting in Vain"
PERFORMER "Annie Lennox"
INDEX 00 36:54:38
INDEX 01 36:54:50
TRACK 10 AUDIO
TITLE "Something So Right"
PERFORMER "Annie Lennox"
INDEX 00 42:35:13
INDEX 01 42:35:35
[свернуть]

Лог проверки качества

AUDIOCHECKER v2.0 beta (build 457) - by Dester -
~~~~~~~~~~~~~~~~~~~~~~~~~~~~~~~~~~
-=== НЕ РЕДАКТИРУЙТЕ ЭТОТ ФАЙЛ! ===-

Путь: ...\1995 - Medusa [74321-25717-2]

1 -=- Annie Lennox - Medusa.flac -=- CDDA (100%)

80476356
[свернуть]

Спектр частот

[свернуть]

Скачать Annie Lennox - Medusa



password: sergych
[свернуть]
My opinion of release: 10/10
__________________
TAIFUN.Wings of Soul

Вверх
Пользователь сказал cпасибо:
swint68 (14.05.2018)
  #2
Старый 12.05.2018, 19:10
sergych
Координатор
Досье
 
Аватар для sergych
Релиз Annie Lennox - Medusa / Live In Central Park


1995 - Annie Lennox - Medusa / Live In Central Park




Исполнитель/Artist: Annie Lennox
Альбом/Album: Medusa / Live In Central Park
Год/Year: 1995
Жанр/Genre: Pop, Adult contemporary, Alternative Rock, Funk Rock
Страна/Country: Великобритания
Рекорд-лейбл/Record label: BMG Records
Номер в каталоге/Catalogue #: 74321331632
Формат/Format: Free Lossless Audio Codec (*.flac)
Качество/Quality: Lossless
Тип рипа/RIP Type: image+.cue
Продолжительность/Length: 00:46:33 + 00:43:17
Источник/Source: Собственный рип
Размер/Size: 606.1 MB

Сканы в комплекте

Треклист

Medusa
Live In Central Park
[свернуть]

youtube.com

[свернуть]

EAC лог

Medusa
Live In Central Park
[свернуть]

Файл CUE

Medusa
Live In Central Park
[свернуть]

Лог проверки качества

AUDIOCHECKER v2.0 beta (build 457) - by Dester -
~~~~~~~~~~~~~~~~~~~~~~~~~~~~~~~~~~
-=== НЕ РЕДАКТИРУЙТЕ ЭТОТ ФАЙЛ! ===-

Путь: ...\1995 - Medusa _ Live In Central Park [74321331632]

1 -=- Annie Lennox - Live in Central Park.flac -=- CDDA (100%)
2 -=- Annie Lennox - Medusa.flac -=- CDDA (100%)

Сводка 100,00% CDDA

1518020
[свернуть]

Спектр частот



[свернуть]

Скачать Annie Lennox - Medusa / Live In Central Park



password: sergych
[свернуть]

Контрольная сумма (хеш-сумма) архива

MD5: c6672f226db1c480956fe2ab413ae899
[свернуть]
My opinion of release: 10/10
__________________
TAIFUN.Wings of Soul

Вверх
3 пользователя(ей) сказали cпасибо:
Показать список поблагодаривших
  #3
Старый 14.05.2018, 08:41
swint68
Меломан
Досье
 
Аватар для swint68
По умолчанию Re: Annie Lennox - Medusa

Обожаю Annie Lennox.
Спасибо большое!

Вверх
Пользователь сказал cпасибо:
sergych (14.05.2018)
  #4
Старый 14.05.2018, 10:45
sergych
Координатор
Досье
 
Аватар для sergych
По умолчанию Re: Annie Lennox - Medusa

Цитата: Сообщение от swint68 Посмотреть сообщение
Обожаю Annie Lennox

Она у мну тоже в числе любимок, т.ч. мимо пройти, конечно же, не смог
__________________
TAIFUN.Wings of Soul

Вверх
Похожие темы
Тема Автор Раздел Ответов Последнее сообщение
Альбом Annie Lennox - Diva sergych Зарубежная Поп-Музыка 1 28.12.2013 15:52
Альбом Annie Lennox - Bare sergych Зарубежная Поп-Музыка 0 03.12.2013 20:18
Highlord - Medusa's Coil rOzIk Power Metal 0 12.05.2008 23:56


Метки
1995 , adult contemporary , alternative rock , annie lennox , funk rock , medusa , pop

Опции темы

Ваши права в разделе
Вы не можете создавать новые темы
Вы не можете отвечать в темах
Вы не можете прикреплять вложения
Вы не можете редактировать свои сообщения

Быстрый переход



Текущее время: 09:48. Часовой пояс GMT +3.
Powered by vBulletin® Version 3.8.10
Copyright ©2000 - 2018, vBulletin Solutions, Inc. Перевод: zCarot
© 2008 - 2018 Taifun With Song
Яндекс.Метрика