TAIFUN With Song
Навигация
Вернуться   TAIFUN With Song > Music (обменник) > Club & Electronic Music > Disco
Расширенный поиск
Disco Один из самых популярных танцевальных музыкальных стилей 70-х годов. Цель этой музыки была одна: любыми способами заставить людей выйти на танцплощадку, поэтому Disco преуспело главным образом как студийное творчество, увековеченное на пластинках, а далеко не как живые концертные шоу. Почти для всех произведений Disco характерен монотонный акцентированный ритм, фоновое звучание ведущих инструментов группы или оркестра (гитары, струнные, духовые) и достаточно выразительный вокал.

А знаете ли Вы, что...
Какое музыкальное произведение планируется закончить исполнять к 2640 году?
«Среди произведений Джона Кейджа есть пьеса «Organ²/ASLSP (As SLow aS Possible)». Её типичное исполнение на фортепиано занимает от 20 до 70 минут, однако пояснение в скобках даёт указание играть пьесу настолько медленно, насколько это возможно. В связи с этим в 2001 году в церкви немецкого города Хальберштадт началось уникальное исполнение этой пьесы на органе, которое планируется завершить в 2640 году (через 639 лет после начала), а смена аккорда проходит примерно раз в год.»
 
Опции темы

  #1
Старый 01.11.2015, 14:37
sergych
Координатор
Досье
 
Аватар для sergych
Релиз Donna Summer - The Best Of Donna Summer {20th Century Masters. The Millennium Collection}


2003 - Donna Summer - The Best Of Donna Summer {20th Century Masters. The Millennium Collection}




Исполнитель/Artist: Donna Summer
Альбом/Album: The Best Of Donna Summer {20th Century Masters. The Millennium Collection}
Год/Year: 2003
Жанр/Genre: Pop, dance, soul, R&B, disco
Страна/Country: Канада
Рекорд-лейбл/Record label: The Island Def Jam Music Group / Universal Music
Номер в каталоге/Catalogue #: 4400636092
Формат/Format: Free Lossless Audio Codec (*.flac)
Качество/Quality: Lossless
Тип рипа/RIP Type: image+.cue
Продолжительность/Length: 00:50:43
Источник/Source: Собственный рип
Размер/Size: 395.9 MB

Сканы в комплекте

Треклист

01. Love To Love You Baby [0:03:22.45]
02. I Feel Love [0:05:53.25]
03. Last Dance [0:04:58.43]
04. MacArthur Park [0:03:56.25]
05. Hot Stuff [0:05:15.10]
06. Bad Girls [0:04:57.15]
07. Dim All The Lights [0:04:34.31]
08. No More Tears (Enough Is Enough) [0:04:47.55]
09. On The Radio [0:04:05.20]
10. Love Is In Control [0:04:19.70]
11. She Works Hard For The Money [0:04:32.24]
[свернуть]

youtube.com

[свернуть]

EAC лог

Exact Audio Copy V1.0 beta 3 from 29. August 2011

EAC extraction logfile from 29. October 2015, 4:21

Donna Summer / The Best Of {20th Century Masters. The Millennium Collection}

Used drive : ATAPI iHAS124 D Adapter: 0 ID: 2

Read mode : Secure
Utilize accurate stream : Yes
Defeat audio cache : Yes
Make use of C2 pointers : No

Read offset correction : 6
Overread into Lead-In and Lead-Out : No
Fill up missing offset samples with silence : Yes
Delete leading and trailing silent blocks : No
Null samples used in CRC calculations : Yes
Used interface : Installed external ASPI interface

Used output format : User Defined Encoder
Selected bitrate : 1024 kBit/s
Quality : High
Add ID3 tag : No
Command line compressor : C:\Program Files (x86)\Exact Audio Copy\Flac\flac.exe
Additional command line options : -6 -V -T "ARTIST=%artist%" -T "TITLE=%title%" -T "ALBUM=%albumtitle%" -T "DATE=%year%" -T "TRACKNUMBER=%tracknr%" -T "GENRE=%genre%" -T "COMMENT=%comment%" -T "BAND=%albuminterpret%" -T "COMPOSER=%composer%" %haslyrics%--tag-from-file=LYRICS="%lyricsfile%"%haslyrics% -T "DISCNUMBER=%cdnumber%" -T "TOTALDISCS=%totalcds%" -T "TOTALTRACKS=%numtracks%" %hascover%--picture="%coverfile%"%hascover% %source% -o %dest%


TOC of the extracted CD

Track | Start | Length | Start sector | End sector
---------------------------------------------------------
1 | 0:00.00 | 3:22.45 | 0 | 15194
2 | 3:22.45 | 5:53.25 | 15195 | 41694
3 | 9:15.70 | 4:58.43 | 41695 | 64087
4 | 14:14.38 | 3:56.25 | 64088 | 81812
5 | 18:10.63 | 5:15.10 | 81813 | 105447
6 | 23:25.73 | 4:57.15 | 105448 | 127737
7 | 28:23.13 | 4:34.31 | 127738 | 148318
8 | 32:57.44 | 4:47.55 | 148319 | 169898
9 | 37:45.24 | 4:05.20 | 169899 | 188293
10 | 41:50.44 | 4:19.70 | 188294 | 207788
11 | 46:10.39 | 4:32.24 | 207789 | 228212


Range status and errors

Selected range

Filename C:\mm\Donna Summer\2003 - The Best Of Donna Summer {20th Century Masters. The Millennium Collection} [4400636092]\Donna Summer - The Best Of {20th Century Masters. The Millennium Collection}.wav

Peak level 99.5 %
Extraction speed 8.7 X
Range quality 100.0 %
Test CRC B4CC9FD0
Copy CRC B4CC9FD0
Copy OK

No errors occurred


AccurateRip summary

Track 1 accurately ripped (confidence 41) [62046217] (AR v2)
Track 2 accurately ripped (confidence 41) [ACA023A6] (AR v2)
Track 3 accurately ripped (confidence 40) [EFE17C9F] (AR v2)
Track 4 accurately ripped (confidence 40) [60BF060C] (AR v2)
Track 5 accurately ripped (confidence 41) [7FA8B018] (AR v2)
Track 6 accurately ripped (confidence 41) [C45EA99B] (AR v2)
Track 7 accurately ripped (confidence 40) [2EC41B16] (AR v2)
Track 8 accurately ripped (confidence 40) [FAE4A0EA] (AR v2)
Track 9 accurately ripped (confidence 40) [9CF0AE87] (AR v2)
Track 10 accurately ripped (confidence 39) [5129733C] (AR v2)
Track 11 accurately ripped (confidence 38) [779BAF58] (AR v2)

All tracks accurately ripped

End of status report
[свернуть]

Файл CUE

REM GENRE Pop
REM DATE 2003
REM DISCID 980BE20B
REM COMMENT "ExactAudioCopy v1.0b3"
PERFORMER "Donna Summer"
TITLE "The Best Of {20th Century Masters. The Millennium Collection}"
FILE "Donna Summer - The Best Of {20th Century Masters. The Millennium Collection}.flac" WAVE
TRACK 01 AUDIO
TITLE "Love To Love You Baby"
PERFORMER "Donna Summer"
INDEX 01 00:00:00
TRACK 02 AUDIO
TITLE "I Feel Love"
PERFORMER "Donna Summer"
INDEX 00 03:21:31
INDEX 01 03:22:45
TRACK 03 AUDIO
TITLE "Last Dance"
PERFORMER "Donna Summer"
INDEX 00 09:14:52
INDEX 01 09:15:70
TRACK 04 AUDIO
TITLE "MacArthur Park"
PERFORMER "Donna Summer"
INDEX 00 14:13:26
INDEX 01 14:14:38
TRACK 05 AUDIO
TITLE "Hot Stuff"
PERFORMER "Donna Summer"
INDEX 01 18:10:63
TRACK 06 AUDIO
TITLE "Bad Girls"
PERFORMER "Donna Summer"
INDEX 01 23:25:73
TRACK 07 AUDIO
TITLE "Dim All The Lights"
PERFORMER "Donna Summer"
INDEX 00 28:21:44
INDEX 01 28:23:13
TRACK 08 AUDIO
TITLE "No More Tears (Enough Is Enough)"
PERFORMER "Donna Summer"
INDEX 00 32:56:06
INDEX 01 32:57:44
TRACK 09 AUDIO
TITLE "On The Radio"
PERFORMER "Donna Summer"
INDEX 01 37:45:24
TRACK 10 AUDIO
TITLE "Love Is In Control"
PERFORMER "Donna Summer"
INDEX 00 41:49:31
INDEX 01 41:50:44
TRACK 11 AUDIO
TITLE "She Works Hard For The Money"
PERFORMER "Donna Summer"
INDEX 00 46:09:30
INDEX 01 46:10:39
[свернуть]

Лог проверки качества

AUDIOCHECKER v2.0 beta (build 457) - by Dester -
~~~~~~~~~~~~~~~~~~~~~~~~~~~~~~~~~~
-=== НЕ РЕДАКТИРУЙТЕ ЭТОТ ФАЙЛ! ===-

Путь: ...\2003 - The Best Of Donna Summer {20th Century Masters. The Millennium Collection} [4400636092]

1 -=- Donna Summer - The Best Of {20th Century Masters. The Millennium Collection}.flac -=- CDDA (100%)

245315876
[свернуть]

Спектр частот

[свернуть]

Скачать Donna Summer - The Best Of {20th Century Masters. The Millennium Collection}



password: sergych
[свернуть]
My opinion of release: 10/10
__________________
TAIFUN.Wings of Soul

Вверх
Пользователь сказал cпасибо:
andrus (16.12.2015)
Похожие темы
Тема Автор Раздел Ответов Последнее сообщение
Сборник Eric Clapton - The Best Of Eric Clapton {20th Century Masters. The Millennium Collection} sergych Blues Rock 0 07.08.2015 16:58
Сборник Joe Cocker - The Best Of Joe Cocker {20th Century Masters. The Millennium Collection} sergych Blues Rock 0 07.08.2015 16:32
Сборник Styx - The Best Of Styx {20th Century Masters. The Millennium Collection} sergych Progressive Rock 0 05.08.2015 21:28
Сборник Aerosmith - The Best Of Aerosmith {20th Century Masters. The Millennium Collection} sergych Hard Rock 0 04.08.2015 21:49
Сборник Cher - The Best of Cher {20th Century Masters. The Millennium Collection} sergych Зарубежная Поп-Музыка 0 22.06.2014 09:36


Метки
2003 , dance , disco , donna summer , pop , r&b , soul , the best of donna summer {20th century masters. the millennium collection}

Опции темы

Ваши права в разделе
Вы не можете создавать новые темы
Вы не можете отвечать в темах
Вы не можете прикреплять вложения
Вы не можете редактировать свои сообщения

Быстрый переход



Текущее время: 22:26. Часовой пояс GMT +3.
Powered by vBulletin® Version 3.8.10
Copyright ©2000 - 2018, vBulletin Solutions, Inc. Перевод: zCarot
© 2008 - 2018 Taifun With Song
Яндекс.Метрика