TAIFUN With Song
Навигация
Jazz и Blues Гибкая ритмика, импровизационное начало, гармонии и мелодии - все это Jazz. Blues - жизнеутверждающая музыка, рожденная из душевной боли

А знаете ли Вы, что...
Почему песня «А может быть ворона» из советского мультфильма была записана в ускоренном темпе?
«Песня «А может быть ворона» изначально должна была звучать в мультфильме «Пластилиновая ворона» в обычном темпе. Однако режиссёр Александр Татарский не проследил за временем записи, из-за чего песня не уложилась в отведённые 5 минут анимации. Решение было найдено простое — песню ускорили, в результате чего она приобрела своё знаменитое «мультяшное» звучание.»
 
Опции темы

  #1
Старый 29.04.2015, 16:12
sergych
Координатор
Досье
 
Аватар для sergych
Релиз Gordon Haskell - Harry's Bar


2002 - Gordon Haskell - Harry's Bar




Исполнитель/Artist: Gordon Haskell
Альбом/Album: Harry's Bar
Год/Year: 2002
Жанр/Genre: Blues, Blues rock, Smooth jazz
Страна/Country: Великобритания
Рекорд-лейбл/Record label: Warner Music
Номер в каталоге/Catalogue #: 0927-43976-2
Формат/Format: Free Lossless Audio Codec (*.flac)
Качество/Quality: Lossless
Тип рипа/RIP Type: image+.cue
Продолжительность/Length: 00:53:59
Источник/Source: Собственный рип
Размер/Size: 368.4 MB

Сканы в комплекте

Треклист

01. How Wonderful You Are [0:03:57.55]
02. All The Time In The World [0:04:58.65]
03. Voodoo Dance [0:03:56.27]
04. Freeway To Her Dreams [0:02:46.60]
05. Sunshine In The Night [0:04:33.58]
06. Al Capone [0:05:09.65]
07. Feelin' Loose [0:04:48.60]
08. There Goes My Heart Again [0:04:28.52]
09. Roll With It [0:05:47.23]
10. Someone I Knew [0:04:59.72]
11. A Little Help From You [0:03:38.18]
12. All In The Scheme Of Things [0:04:51.60]
[свернуть]

youtube.com

[свернуть]

EAC лог

Exact Audio Copy V1.0 beta 3 from 29. August 2011

EAC extraction logfile from 28. April 2015, 0:25

Gordon Haskell / Harry's Bar

Used drive : ATAPI iHAS124 D Adapter: 0 ID: 2

Read mode : Secure
Utilize accurate stream : Yes
Defeat audio cache : Yes
Make use of C2 pointers : No

Read offset correction : 6
Overread into Lead-In and Lead-Out : No
Fill up missing offset samples with silence : Yes
Delete leading and trailing silent blocks : No
Null samples used in CRC calculations : Yes
Used interface : Installed external ASPI interface

Used output format : User Defined Encoder
Selected bitrate : 1024 kBit/s
Quality : High
Add ID3 tag : No
Command line compressor : C:\Program Files (x86)\Exact Audio Copy\Flac\flac.exe
Additional command line options : -6 -V -T "ARTIST=%artist%" -T "TITLE=%title%" -T "ALBUM=%albumtitle%" -T "DATE=%year%" -T "TRACKNUMBER=%tracknr%" -T "GENRE=%genre%" -T "COMMENT=%comment%" -T "BAND=%albuminterpret%" -T "COMPOSER=%composer%" %haslyrics%--tag-from-file=LYRICS="%lyricsfile%"%haslyrics% -T "DISCNUMBER=%cdnumber%" -T "TOTALDISCS=%totalcds%" -T "TOTALTRACKS=%numtracks%" %hascover%--picture="%coverfile%"%hascover% %source% -o %dest%


TOC of the extracted CD

Track | Start | Length | Start sector | End sector
---------------------------------------------------------
1 | 0:00.00 | 3:57.55 | 0 | 17829
2 | 3:57.55 | 4:58.65 | 17830 | 40244
3 | 8:56.45 | 3:56.27 | 40245 | 57971
4 | 12:52.72 | 2:46.60 | 57972 | 70481
5 | 15:39.57 | 4:33.58 | 70482 | 91014
6 | 20:13.40 | 5:09.65 | 91015 | 114254
7 | 25:23.30 | 4:48.60 | 114255 | 135914
8 | 30:12.15 | 4:28.52 | 135915 | 156066
9 | 34:40.67 | 5:47.23 | 156067 | 182114
10 | 40:28.15 | 4:59.72 | 182115 | 204611
11 | 45:28.12 | 3:38.18 | 204612 | 220979
12 | 49:06.30 | 4:51.60 | 220980 | 242864


Range status and errors

Selected range

Filename C:\mm\Gordon Haskell\2002 - Harry's Bar [0927-43976-2]\Gordon Haskell - Harry's Bar.wav

Peak level 98.7 %
Extraction speed 8.7 X
Range quality 100.0 %
Test CRC 98DA367A
Copy CRC 98DA367A
Copy OK

No errors occurred


AccurateRip summary

Track 1 accurately ripped (confidence 59) [38A91487] (AR v2)
Track 2 accurately ripped (confidence 60) [6FF39BD5] (AR v2)
Track 3 accurately ripped (confidence 60) [C0D5F3DC] (AR v2)
Track 4 accurately ripped (confidence 60) [738A394D] (AR v2)
Track 5 accurately ripped (confidence 60) [BC62837F] (AR v2)
Track 6 accurately ripped (confidence 60) [D6CFD5CF] (AR v2)
Track 7 accurately ripped (confidence 60) [BBB1B116] (AR v2)
Track 8 accurately ripped (confidence 59) [3E9AD7B5] (AR v2)
Track 9 accurately ripped (confidence 60) [E5388FFD] (AR v2)
Track 10 accurately ripped (confidence 61) [6113AEC6] (AR v2)
Track 11 accurately ripped (confidence 60) [30C4EA25] (AR v2)
Track 12 accurately ripped (confidence 61) [0A0F6984] (AR v2)

All tracks accurately ripped

End of status report
[свернуть]

Файл CUE

REM GENRE Jazz
REM DATE 2002
REM DISCID 9C0CA60C
REM COMMENT "ExactAudioCopy v1.0b3"
PERFORMER "Gordon Haskell"
TITLE "Harry's Bar"
FILE "Gordon Haskell - Harry's Bar.flac" WAVE
TRACK 01 AUDIO
TITLE "How Wonderful You Are"
PERFORMER "Gordon Haskell"
INDEX 01 00:00:00
TRACK 02 AUDIO
TITLE "All The Time In The World"
PERFORMER "Gordon Haskell"
INDEX 00 03:56:35
INDEX 01 03:57:55
TRACK 03 AUDIO
TITLE "Voodoo Dance"
PERFORMER "Gordon Haskell"
INDEX 00 08:55:35
INDEX 01 08:56:45
TRACK 04 AUDIO
TITLE "Freeway To Her Dreams"
PERFORMER "Gordon Haskell"
INDEX 00 12:51:47
INDEX 01 12:52:72
TRACK 05 AUDIO
TITLE "Sunshine In The Night"
PERFORMER "Gordon Haskell"
INDEX 00 15:38:15
INDEX 01 15:39:57
TRACK 06 AUDIO
TITLE "Al Capone"
PERFORMER "Gordon Haskell"
INDEX 00 20:11:40
INDEX 01 20:13:40
TRACK 07 AUDIO
TITLE "Feelin' Loose"
PERFORMER "Gordon Haskell"
INDEX 00 25:21:70
INDEX 01 25:23:30
TRACK 08 AUDIO
TITLE "There Goes My Heart Again"
PERFORMER "Gordon Haskell"
INDEX 00 30:11:10
INDEX 01 30:12:15
TRACK 09 AUDIO
TITLE "Roll With It"
PERFORMER "Gordon Haskell"
INDEX 00 34:39:12
INDEX 01 34:40:67
TRACK 10 AUDIO
TITLE "Someone I Knew"
PERFORMER "Gordon Haskell"
INDEX 00 40:26:50
INDEX 01 40:28:15
TRACK 11 AUDIO
TITLE "A Little Help From You"
PERFORMER "Gordon Haskell"
INDEX 00 45:26:32
INDEX 01 45:28:12
TRACK 12 AUDIO
TITLE "All In The Scheme Of Things"
PERFORMER "Gordon Haskell"
INDEX 00 49:04:32
INDEX 01 49:06:30
[свернуть]

Лог проверки качества

AUDIOCHECKER v2.0 beta (build 457) - by Dester -
~~~~~~~~~~~~~~~~~~~~~~~~~~~~~~~~~~
-=== НЕ РЕДАКТИРУЙТЕ ЭТОТ ФАЙЛ! ===-

Путь: ...\2002 - Harry's Bar [0927-43976-2]

1 -=- Gordon Haskell - Harry's Bar.flac -=- CDDA (100%)

71801636
[свернуть]

Спектр частот

[свернуть]

Скачать Gordon Haskell - Harry's Bar



password: sergych
[свернуть]
My opinion of release: 10/10
__________________
TAIFUN.Wings of Soul

Вверх
2 пользователя(ей) сказали cпасибо:
ato34 (08.11.2016), johnsilver (04.02.2018)
Похожие темы
Тема Автор Раздел Ответов Последнее сообщение
Релиз Queen - Flash Gordon fly123 Hard Rock 1 06.10.2013 12:03
Релиз Jay Gordon's Blues Venom - No Cure PUPOKIN Blues Rock 0 24.12.2011 08:32
Релиз Harry Manx - Bread and Buddha PUPOKIN Jazz и Blues 0 08.12.2009 11:07
Альбом Deborah Harry - Necessary Evil sergych Pop Rock 0 28.01.2009 20:29
Jonny L - Harry / Cumberbatch & Wires DarkDan Drum & Bass 0 23.04.2008 12:16


Метки
2002 , blues , blues rock , gordon haskell , harry's bar , smooth jazz

Опции темы

Ваши права в разделе
Вы не можете создавать новые темы
Вы не можете отвечать в темах
Вы не можете прикреплять вложения
Вы не можете редактировать свои сообщения

Быстрый переход



Текущее время: 06:55. Часовой пояс GMT +3.
Powered by vBulletin® Version 3.8.10
Copyright ©2000 - 2018, vBulletin Solutions, Inc. Перевод: zCarot
© 2008 - 2018 Taifun With Song
Яндекс.Метрика