TAIFUN With Song
Навигация
Jazz и Blues Гибкая ритмика, импровизационное начало, гармонии и мелодии - все это Jazz. Blues - жизнеутверждающая музыка, рожденная из душевной боли

А знаете ли Вы, что...
Какой композитор писал музыку, будучи глухим?
«На момент написания своей знаменитой девятой симфонии Бетховен был абсолютно глух.»
 
Опции темы

  #1
Старый 09.11.2013, 10:00
sergych
Координатор
Досье
 
Аватар для sergych
Релиз Oscar Peterson & Harry Edison


1975(1992) - Oscar Peterson & Harry Edison




Исполнитель/Artist: Oscar Peterson & Harry Edison
Альбом/Album: Oscar Peterson & Harry Edison
Год/Year: 1975
Ремастеринг/Remaster: 1992
Жанр/Genre: jazz
Рекорд-лейбл/Record label: Pablo / Fantasy
Номер в каталоге/Catalogue #: 00025218673822
Формат/Format: Free Lossless Audio Codec (*.flac)
Качество/Quality: Lossless
Тип рипа/RIP Type: tracks+.cue
Продолжительность/Length: 00:50:50
Источник/Source: Собственный рип
Размер/Size: 308.6 MB

Сканы в комплекте

Треклист

01 - Easy Living
02 - Days Of Wine And Roses
03 - Gee Baby, Ain't I Good To You
04 - Basie
05 - Mean To Me
06 - Signify
07 - Willow Weep For Me
08 - Man I Love, The
09 - You Go To My Head
[свернуть]

youtube.com

[свернуть]

Исполнители/Performers

Oscar Peterson - piano
Harry Edison - trumpet
[свернуть]

EAC лог

Exact Audio Copy V1.0 beta 3 from 29. August 2011

EAC extraction logfile from 9. November 2013, 13:22

Oscar Peterson / Oscar Peterson & Harry Edison

Used drive : ATAPI iHAS124 D Adapter: 0 ID: 2

Read mode : Secure
Utilize accurate stream : Yes
Defeat audio cache : Yes
Make use of C2 pointers : No

Read offset correction : 6
Overread into Lead-In and Lead-Out : No
Fill up missing offset samples with silence : Yes
Delete leading and trailing silent blocks : No
Null samples used in CRC calculations : Yes
Used interface : Installed external ASPI interface
Gap handling : Appended to previous track

Used output format : User Defined Encoder
Selected bitrate : 1024 kBit/s
Quality : High
Add ID3 tag : No
Command line compressor : C:\Program Files (x86)\Exact Audio Copy\Flac\flac.exe
Additional command line options : -6 -V -T "ARTIST=%artist%" -T "TITLE=%title%" -T "ALBUM=%albumtitle%" -T "DATE=%year%" -T "TRACKNUMBER=%tracknr%" -T "GENRE=%genre%" -T "COMMENT=%comment%" -T "BAND=%albuminterpret%" -T "COMPOSER=%composer%" %haslyrics%--tag-from-file=LYRICS="%lyricsfile%"%haslyrics% -T "DISCNUMBER=%cdnumber%" -T "TOTALDISCS=%totalcds%" -T "TOTALTRACKS=%numtracks%" %hascover%--picture="%coverfile%"%hascover% %source% -o %dest%


TOC of the extracted CD

Track | Start | Length | Start sector | End sector
---------------------------------------------------------
1 | 0:00.00 | 6:14.02 | 0 | 28051
2 | 6:14.02 | 4:55.15 | 28052 | 50191
3 | 11:09.17 | 6:06.65 | 50192 | 77706
4 | 17:16.07 | 7:24.48 | 77707 | 111054
5 | 24:40.55 | 6:35.57 | 111055 | 140736
6 | 31:16.37 | 5:10.20 | 140737 | 164006
7 | 36:26.57 | 4:41.55 | 164007 | 185136
8 | 41:08.37 | 4:35.63 | 185137 | 205824
9 | 45:44.25 | 5:28.57 | 205825 | 230481


Track 1

Filename C:\mm\Oscar Peterson\1975(1992) - Oscar Peterson & Harry Edison [00025218673822]\01 - Easy Living.wav

Pre-gap length 0:00:02.00

Peak level 95.8 %
Extraction speed 2.1 X
Track quality 100.0 %
Test CRC 87AAF811
Copy CRC 87AAF811
Cannot be verified as accurate (confidence 4) [D9D53A41], AccurateRip returned [CA8EFC73] (AR v2)
Copy OK

Track 2

Filename C:\mm\Oscar Peterson\1975(1992) - Oscar Peterson & Harry Edison [00025218673822]\02 - Days Of Wine And Roses.wav

Pre-gap length 0:00:03.17

Peak level 94.7 %
Extraction speed 2.3 X
Track quality 100.0 %
Test CRC 957D33E7
Copy CRC 957D33E7
Cannot be verified as accurate (confidence 4) [D6C3FE4B], AccurateRip returned [A82F4EC7] (AR v2)
Copy OK

Track 3

Filename C:\mm\Oscar Peterson\1975(1992) - Oscar Peterson & Harry Edison [00025218673822]\03 - Gee Baby, Ain't I Good To You.wav

Pre-gap length 0:00:03.05

Peak level 87.9 %
Extraction speed 2.1 X
Track quality 99.9 %
Test CRC 2481DA6C
Copy CRC 2481DA6C
Cannot be verified as accurate (confidence 4) [78167711], AccurateRip returned [A896E8FF] (AR v2)
Copy OK

Track 4

Filename C:\mm\Oscar Peterson\1975(1992) - Oscar Peterson & Harry Edison [00025218673822]\04 - Basie.wav

Pre-gap length 0:00:03.10

Peak level 99.8 %
Extraction speed 3.0 X
Track quality 100.0 %
Test CRC ED05F8B0
Copy CRC ED05F8B0
Cannot be verified as accurate (confidence 4) [9259E68F], AccurateRip returned [8396B187] (AR v2)
Copy OK

Track 5

Filename C:\mm\Oscar Peterson\1975(1992) - Oscar Peterson & Harry Edison [00025218673822]\05 - Mean To Me.wav

Pre-gap length 0:00:01.18

Peak level 95.6 %
Extraction speed 2.6 X
Track quality 99.9 %
Test CRC 49817993
Copy CRC 49817993
Cannot be verified as accurate (confidence 4) [13D6CFCA], AccurateRip returned [090BB254] (AR v2)
Copy OK

Track 6

Filename C:\mm\Oscar Peterson\1975(1992) - Oscar Peterson & Harry Edison [00025218673822]\06 - Signify.wav

Pre-gap length 0:00:03.42

Peak level 99.7 %
Extraction speed 3.3 X
Track quality 100.0 %
Test CRC 859B9A0F
Copy CRC 859B9A0F
Cannot be verified as accurate (confidence 4) [01F27726], AccurateRip returned [F1696BA3] (AR v2)
Copy OK

Track 7

Filename C:\mm\Oscar Peterson\1975(1992) - Oscar Peterson & Harry Edison [00025218673822]\07 - Willow Weep For Me.wav

Pre-gap length 0:00:03.00

Peak level 98.4 %
Extraction speed 3.4 X
Track quality 100.0 %
Test CRC 2DD0A349
Copy CRC 2DD0A349
Cannot be verified as accurate (confidence 4) [77CFC9DB], AccurateRip returned [93E5B237] (AR v2)
Copy OK

Track 8

Filename C:\mm\Oscar Peterson\1975(1992) - Oscar Peterson & Harry Edison [00025218673822]\08 - Man I Love, The.wav

Pre-gap length 0:00:03.00

Peak level 88.9 %
Extraction speed 3.6 X
Track quality 100.0 %
Test CRC D795B262
Copy CRC D795B262
Cannot be verified as accurate (confidence 4) [242F71FE], AccurateRip returned [D6331A03] (AR v2)
Copy OK

Track 9

Filename C:\mm\Oscar Peterson\1975(1992) - Oscar Peterson & Harry Edison [00025218673822]\09 - You Go To My Head.wav

Pre-gap length 0:00:02.48

Peak level 99.3 %
Extraction speed 3.8 X
Track quality 100.0 %
Test CRC 4813854A
Copy CRC 4813854A
Cannot be verified as accurate (confidence 3) [68504D53], AccurateRip returned [085DF41C] (AR v2)
Copy OK


No tracks could be verified as accurate
You may have a different pressing from the one(s) in the database

No errors occurred

End of status report
[свернуть]

Файл CUE

REM GENRE Jazz
REM DATE 1975
REM DISCID 860C0109
REM COMMENT "ExactAudioCopy v1.0b3"
PERFORMER "Oscar Peterson"
TITLE "Oscar Peterson & Harry Edison"
FILE "01 - Easy Living.wav" WAVE
TRACK 01 AUDIO
TITLE "Easy Living"
PERFORMER "Oscar Peterson"
INDEX 01 00:00:00
TRACK 02 AUDIO
TITLE "Days Of Wine And Roses"
PERFORMER "Oscar Peterson"
INDEX 00 06:10:60
FILE "02 - Days Of Wine And Roses.wav" WAVE
INDEX 01 00:00:00
TRACK 03 AUDIO
TITLE "Gee Baby, Ain't I Good To You"
PERFORMER "Oscar Peterson"
INDEX 00 04:52:10
FILE "03 - Gee Baby, Ain't I Good To You.wav" WAVE
INDEX 01 00:00:00
TRACK 04 AUDIO
TITLE "Basie"
PERFORMER "Oscar Peterson"
INDEX 00 06:03:55
FILE "04 - Basie.wav" WAVE
INDEX 01 00:00:00
TRACK 05 AUDIO
TITLE "Mean To Me"
PERFORMER "Oscar Peterson"
INDEX 00 07:23:30
FILE "05 - Mean To Me.wav" WAVE
INDEX 01 00:00:00
TRACK 06 AUDIO
TITLE "Signify"
PERFORMER "Oscar Peterson"
INDEX 00 06:32:15
FILE "06 - Signify.wav" WAVE
INDEX 01 00:00:00
TRACK 07 AUDIO
TITLE "Willow Weep For Me"
PERFORMER "Oscar Peterson"
INDEX 00 05:07:20
FILE "07 - Willow Weep For Me.wav" WAVE
INDEX 01 00:00:00
TRACK 08 AUDIO
TITLE "Man I Love, The"
PERFORMER "Oscar Peterson"
INDEX 00 04:38:55
FILE "08 - Man I Love, The.wav" WAVE
INDEX 01 00:00:00
TRACK 09 AUDIO
TITLE "You Go To My Head"
PERFORMER "Oscar Peterson"
INDEX 00 04:33:15
FILE "09 - You Go To My Head.wav" WAVE
INDEX 01 00:00:00
[свернуть]

Лог проверки качества

AUDIOCHECKER v2.0 beta (build 457) - by Dester -
~~~~~~~~~~~~~~~~~~~~~~~~~~~~~~~~~~
-=== НЕ РЕДАКТИРУЙТЕ ЭТОТ ФАЙЛ! ===-

Путь: ...\1975(1992) - Oscar Peterson & Harry Edison [00025218673822]

1 -=- 01 - Easy Living.flac -=- CDDA (100%)
2 -=- 02 - Days Of Wine And Roses.flac -=- CDDA (100%)
3 -=- 03 - Gee Baby, Ain't I Good To You.flac -=- CDDA (100%)
4 -=- 04 - Basie.flac -=- CDDA (100%)
5 -=- 05 - Mean To Me.flac -=- CDDA (100%)
6 -=- 06 - Signify.flac -=- CDDA (100%)
7 -=- 07 - Willow Weep For Me.flac -=- CDDA (100%)
8 -=- 08 - Man I Love, The.flac -=- CDDA (99%)
9 -=- 09 - You Go To My Head.flac -=- CDDA (100%)

Сводка 99,89% CDDA

204198692
[свернуть]

Скачать Oscar Peterson & Harry Edison



password: sergych
[свернуть]
My opinion of release: 10/10
__________________
TAIFUN.Wings of Soul

Вверх
Похожие темы
Тема Автор Раздел Ответов Последнее сообщение
Альбом Oscar Peterson - Oscar Peterson Plays Duke Ellington sergych Jazz и Blues 1 05.03.2015 20:44
Сборник Oscar Peterson - Perfect Peterson: The Best Of The Pablo And Telarc Recordings sergych Jazz и Blues 0 12.07.2013 19:51
Альбом Oscar Peterson - Oscar Peterson plays Porgy & Bess sergych Jazz и Blues 0 27.12.2008 06:28
Сборник Oscar Peterson - An Oscar Peterson Christmas sergych Jazz и Blues 0 27.12.2008 05:27
Альбом Count Basie & Oscar Peterson - The Timekeepers (Count Basie Meets Oscar Peterson) sergych Jazz и Blues 0 26.12.2008 04:10


Метки
1975 , 1992 , harry edison , jazz , oscar peterson , oscar peterson & harry edison

Опции темы

Ваши права в разделе
Вы не можете создавать новые темы
Вы не можете отвечать в темах
Вы не можете прикреплять вложения
Вы не можете редактировать свои сообщения

Быстрый переход



Текущее время: 21:45. Часовой пояс GMT +3.
Powered by vBulletin® Version 3.8.10
Copyright ©2000 - 2018, vBulletin Solutions, Inc. Перевод: zCarot
© 2008 - 2018 Taifun With Song
Яндекс.Метрика