TAIFUN With Song
Навигация
Вернуться   TAIFUN With Song > Music (обменник) > Другие направления музыки > Саундтреки
Расширенный поиск
Саундтреки Саундтреки к фильмам, анимации, играм, сериалам

А знаете ли Вы, что...
Музыка какой рок-группы привлекает акул?
«Австралиец Мэтт Уоллер занимается организацией подводных туров для любителей посмотреть на акул. Традиционно для приманки хищников он использовал рыбу, однако недавно случайно обнаружил, что акул привлекает музыка рок-группы AC/DC. Предположительно, акулы реагируют на вибрацию низких частот, так как у них нет ушей. Сейчас компания Уоллера — единственный туроператор в мире, использующий музыку для приманки, однако он полагает, что конкуренты вскоре последуют его примеру.»
 
Опции темы

  #1
Старый 08.11.2017, 17:39
sergych
Координатор
Досье
 
Аватар для sergych
Релиз Enya - Themes From Calmi Cuori Appassionati


2001 - Enya - Themes From Calmi Cuori Appassionati




Исполнитель/Artist: Enya
Альбом/Album: Themes From Calmi Cuori Appassionati
Год/Year: 2001
Жанр/Genre: New age, Celtic, instrumental
Страна/Country: Япония
Рекорд-лейбл/Record label: Warner Music
Номер в каталоге/Catalogue #: WPCR-11006
Формат/Format: Free Lossless Audio Codec (*.flac)
Качество/Quality: Lossless
Тип рипа/RIP Type: image+.cue
Продолжительность/Length: 00:49:17
Источник/Source: Собственный рип
Размер/Size: 348.7 MB

Сканы в комплекте

Треклист

01. Wild Child [0:03:49.30]
02. Caribbean Blue [0:03:59.10]
03. Book Of Days [0:02:56.10]
04. Afer Ventus [0:04:06.05]
05. Watermark [0:02:26.37]
06. Orinoco Flow [0:04:26.73]
07. The Celts [0:02:57.47]
08. Once You Had Gold [0:03:18.25]
09. Triad. St. Patrick - Cu Chulainn - Oisin [0:04:25.13]
10. Anywhere Is [0:03:46.32]
11. Fairytale [0:03:04.48]
12. Evening Falls... [0:03:49.37]
13. Song Of The Sandman (Lullaby) [0:03:42.03]
14. The Promise [0:02:29.12]
[свернуть]

youtube.com

[свернуть]

EAC лог

Exact Audio Copy V1.3 from 2. September 2016

EAC extraction logfile from 28. October 2017, 21:03

Enya / Themes From Calmi Cuori Appassionati

Used drive : ATAPI iHAS124 D Adapter: 0 ID: 2

Read mode : Secure
Utilize accurate stream : Yes
Defeat audio cache : Yes
Make use of C2 pointers : No

Read offset correction : 6
Overread into Lead-In and Lead-Out : No
Fill up missing offset samples with silence : Yes
Delete leading and trailing silent blocks : No
Null samples used in CRC calculations : Yes
Used interface : Installed external ASPI interface

Used output format : User Defined Encoder
Selected bitrate : 1024 kBit/s
Quality : High
Add ID3 tag : No
Command line compressor : C:\Program Files (x86)\Exact Audio Copy\Flac\flac.exe
Additional command line options : -6 -V -T "ARTIST=%artist%" -T "TITLE=%title%" -T "ALBUM=%albumtitle%" -T "DATE=%year%" -T "TRACKNUMBER=%tracknr%" -T "GENRE=%genre%" -T "COMMENT=%comment%" -T "BAND=%albuminterpret%" -T "ALBUMARTIST=%albuminterpret%" -T "COMPOSER=%composer%" %haslyrics%--tag-from-file=LYRICS="%lyricsfile%"%haslyrics% -T "DISCNUMBER=%cdnumber%" -T "TOTALDISCS=%totalcds%" -T "TOTALTRACKS=%numtracks%" %hascover%--picture="%coverfile%"%hascover% %source% -o %dest%


TOC of the extracted CD

Track | Start | Length | Start sector | End sector
---------------------------------------------------------
1 | 0:00.00 | 3:49.30 | 0 | 17204
2 | 3:49.30 | 3:59.10 | 17205 | 35139
3 | 7:48.40 | 2:56.10 | 35140 | 48349
4 | 10:44.50 | 4:06.05 | 48350 | 66804
5 | 14:50.55 | 2:26.37 | 66805 | 77791
6 | 17:17.17 | 4:26.73 | 77792 | 97814
7 | 21:44.15 | 2:57.47 | 97815 | 111136
8 | 24:41.62 | 3:18.25 | 111137 | 126011
9 | 28:00.12 | 4:25.13 | 126012 | 145899
10 | 32:25.25 | 3:46.32 | 145900 | 162881
11 | 36:11.57 | 3:04.48 | 162882 | 176729
12 | 39:16.30 | 3:49.37 | 176730 | 193941
13 | 43:05.67 | 3:42.03 | 193942 | 210594
14 | 46:47.70 | 2:29.12 | 210595 | 221781


Range status and errors

Selected range

Filename C:\mm\Enya\2001 - Themes from Calmi Cuori Appassionati [WPCR-11006]\Enya - Themes From Calmi Cuori Appassionati.wav

Peak level 99.5 %
Extraction speed 8.3 X
Range quality 99.9 %
Test CRC EA1E5728
Copy CRC EA1E5728
Copy OK

No errors occurred


AccurateRip summary

Track 1 accurately ripped (confidence 5) [A43A7002] (AR v2)
Track 2 accurately ripped (confidence 5) [FF057D6D] (AR v2)
Track 3 accurately ripped (confidence 5) [3608C6D3] (AR v2)
Track 4 accurately ripped (confidence 5) [D685EA79] (AR v2)
Track 5 accurately ripped (confidence 5) [6BDCA74D] (AR v2)
Track 6 accurately ripped (confidence 5) [5EAEAA4B] (AR v2)
Track 7 accurately ripped (confidence 5) [972AC355] (AR v2)
Track 8 accurately ripped (confidence 5) [75A812C1] (AR v2)
Track 9 accurately ripped (confidence 5) [73F3432B] (AR v2)
Track 10 accurately ripped (confidence 5) [370D735A] (AR v2)
Track 11 accurately ripped (confidence 5) [55712BBF] (AR v2)
Track 12 accurately ripped (confidence 5) [F19970DC] (AR v2)
Track 13 accurately ripped (confidence 5) [A327EE48] (AR v2)
Track 14 accurately ripped (confidence 5) [8599A43A] (AR v2)

All tracks accurately ripped

End of status report

---- CUETools DB Plugin V2.1.6

[CTDB TOCID: n1dKVVWNyd7spE397bOfBFyIk.o-] found
Submit result: n1dKVVWNyd7spE397bOfBFyIk.o- has been confirmed
Track | CTDB Status
1 | (163/168) Accurately ripped
2 | (166/168) Accurately ripped
3 | (167/168) Accurately ripped
4 | (167/168) Accurately ripped
5 | (167/168) Accurately ripped
6 | (167/168) Accurately ripped
7 | (166/168) Accurately ripped
8 | (166/168) Accurately ripped
9 | (167/168) Accurately ripped
10 | (164/168) Accurately ripped
11 | (167/168) Accurately ripped
12 | (161/168) Accurately ripped
13 | (161/168) Accurately ripped
14 | (165/168) Accurately ripped
[свернуть]

Файл CUE

REM GENRE "New Age"
REM DATE 2001
REM DISCID CB0B8D0E
REM COMMENT "ExactAudioCopy v1.3"
PERFORMER "Enya"
TITLE "Themes From Calmi Cuori Appassionati"
REM COMPOSER ""
FILE "Enya - Themes From Calmi Cuori Appassionati.flac" WAVE
TRACK 01 AUDIO
TITLE "Wild Child"
PERFORMER "Enya"
REM COMPOSER ""
INDEX 01 00:00:00
TRACK 02 AUDIO
TITLE "Caribbean Blue"
PERFORMER "Enya"
REM COMPOSER ""
INDEX 00 03:47:30
INDEX 01 03:49:30
TRACK 03 AUDIO
TITLE "Book Of Days"
PERFORMER "Enya"
REM COMPOSER ""
INDEX 00 07:46:00
INDEX 01 07:48:40
TRACK 04 AUDIO
TITLE "Afer Ventus"
PERFORMER "Enya"
REM COMPOSER ""
INDEX 00 10:42:37
INDEX 01 10:44:50
TRACK 05 AUDIO
TITLE "Watermark"
PERFORMER "Enya"
REM COMPOSER ""
INDEX 00 14:49:52
INDEX 01 14:50:55
TRACK 06 AUDIO
TITLE "Orinoco Flow"
PERFORMER "Enya"
REM COMPOSER ""
INDEX 00 17:15:10
INDEX 01 17:17:17
TRACK 07 AUDIO
TITLE "The Celts"
PERFORMER "Enya"
REM COMPOSER ""
INDEX 01 21:44:15
TRACK 08 AUDIO
TITLE "Once You Had Gold"
PERFORMER "Enya"
REM COMPOSER ""
INDEX 00 24:39:55
INDEX 01 24:41:62
TRACK 09 AUDIO
TITLE "Triad. St. Patrick - Cu Chulainn - Oisin"
PERFORMER "Enya"
REM COMPOSER ""
INDEX 00 27:58:15
INDEX 01 28:00:12
TRACK 10 AUDIO
TITLE "Anywhere Is"
PERFORMER "Enya"
REM COMPOSER ""
INDEX 00 32:24:10
INDEX 01 32:25:25
TRACK 11 AUDIO
TITLE "Fairytale"
PERFORMER "Enya"
REM COMPOSER ""
INDEX 00 36:08:62
INDEX 01 36:11:57
TRACK 12 AUDIO
TITLE "Evening Falls..."
PERFORMER "Enya"
REM COMPOSER ""
INDEX 00 39:15:12
INDEX 01 39:16:30
TRACK 13 AUDIO
TITLE "Song Of The Sandman (Lullaby)"
PERFORMER "Enya"
REM COMPOSER ""
INDEX 00 43:03:57
INDEX 01 43:05:67
TRACK 14 AUDIO
TITLE "The Promise"
PERFORMER "Enya"
REM COMPOSER ""
INDEX 00 46:45:57
INDEX 01 46:47:70
[свернуть]

Лог проверки качества

AUDIOCHECKER v2.0 beta (build 457) - by Dester -
~~~~~~~~~~~~~~~~~~~~~~~~~~~~~~~~~~
-=== НЕ РЕДАКТИРУЙТЕ ЭТОТ ФАЙЛ! ===-

Путь: ...\2001 - Themes from Calmi Cuori Appassionati [WPCR-11006]

1 -=- Enya - Themes From Calmi Cuori Appassionati.flac -=- CDDA (100%)

10368900
[свернуть]

Спектр частот

[свернуть]

Скачать Enya - Themes From Calmi Cuori Appassionati



password: sergych
[свернуть]

Контрольная сумма (хеш-сумма) архива

MD5: 782fca9b17aeff5ac3aa8e9ae3ec2e62
[свернуть]
My opinion of release: 10/10

Release info RInfo

Треки Enya, использованные в романтическом японском фильме-истории двух влюблённых.
По-сути, - сборник, без сомнения, лучших вещей. Эдакий "Best of.."
__________________
TAIFUN.Wings of Soul

Вверх
3 пользователя(ей) сказали cпасибо:
Показать список поблагодаривших
  #2
Старый 11.11.2017, 16:16
swint68
Меломан
Досье
 
Аватар для swint68
По умолчанию Re: Enya - Themes From Calmi Cuori Appassionati

Очередной раз спасибо!

Вверх
Пользователь сказал cпасибо:
sergych (14.11.2017)
Похожие темы
Тема Автор Раздел Ответов Последнее сообщение
Сборник David Benoit ‎– Jazz For Peanuts (A Retrospective Of The Charlie Brown TV Themes) sergych Jazz и Blues 0 06.08.2016 17:24
Сборник Vangelis - Themes sergych Instrumental 0 23.01.2016 13:54
Сборник Enya - Paint the Sky With Stars. The Best of Enya sergych New age 0 29.04.2014 20:10
VA Talkin Jazz:Themes from the Black Forest PUPOKIN Jazz и Blues 0 24.10.2010 09:19
Альбом Enya - The Best Of Enya On Piano PUPOKIN New age 0 03.06.2009 09:37


Метки
2001 , celtic , enya , instrumental , new age , themes from calmi cuori appassionati

Опции темы

Ваши права в разделе
Вы не можете создавать новые темы
Вы не можете отвечать в темах
Вы не можете прикреплять вложения
Вы не можете редактировать свои сообщения

Быстрый переход



Текущее время: 00:21. Часовой пояс GMT +3.
Powered by vBulletin® Version 3.8.10
Copyright ©2000 - 2018, vBulletin Solutions, Inc. Перевод: zCarot
© 2008 - 2018 Taifun With Song
Яндекс.Метрика