TAIFUN With Song
Навигация
Вернуться   TAIFUN With Song > Music (обменник) > Rock > Progressive Rock
Расширенный поиск
Progressive Rock Единственной универсальной характеристикой прогрессивного рока является усложнение музыкальной формы. Это проявляется в удлиннении и усложнении музыкальных пьес, тяготении к циклическим формам академической музыки; расширении репертуара используемых тембров, усложнении метра и ритма, использовании нетрадиционных для рока мелодических и гармонических решений; поэзии, уходящей от тем развлекательной музыки и тяготеющей к философским «вечным темам», фантастической и фентезийной тематике; переплетении с классической и современной академической музыкой, джазом.

А знаете ли Вы, что...
Где недавно был совершён акт каннибализма с согласия жертвы?
«В 2001 году в немецком Ротенбурге Армин Майвес поместил в интернете серию каннибальских объявлений в поисках молодого парня в возрасте от 18 до 30 лет, желающего умереть и быть съеденным. На одно из объявлений откликнулся Бернд Брандес. Он, по своему собственному согласию, был убит и частично съеден Майвесом, позже приговорённым к пожизненному заключению. На этот сюжет написана песня «Mein Teil» группы Rammstein.»
 
Опции темы

  #1
Старый 11.06.2018, 19:09
sergych
Координатор
Досье
 
Аватар для sergych
Релиз David Gilmour - About Face


1984(2006) - David Gilmour - About Face




Исполнитель/Artist: David Gilmour
Альбом/Album: About Face
Год/Year: 1984
Ремастеринг/Remaster: 2006
Жанр/Genre: Rock, Psychedelic rock, Progressive Rock, Alternative Rock, Art Rock
Страна/Country: Германия
Рекорд-лейбл/Record label: Parlophone / EMI
Номер в каталоге/Catalogue #: 0946 3 70842 2 9
Формат/Format: Free Lossless Audio Codec (*.flac)
Качество/Quality: Lossless
Тип рипа/RIP Type: image+.cue
Продолжительность/Length: 00:45:54
Источник/Source: Собственный рип
Размер/Size: 313.2 MB

Сканы в комплекте

Треклист

01. Until We Sleep [0:05:19.23]
02. Murder [0:04:59.28]
03. Love On The Air [0:04:20.20]
04. Blue Light [0:04:35.62]
05. Out Of The Blue [0:03:37.44]
06. All Lovers Are Deranged [0:03:15.21]
07. You Know I'm Right [0:05:05.64]
08. Cruise [0:04:39.69]
09. Let's Get Metaphysical [0:04:09.31]
10. Near the End [0:05:50.59]
[свернуть]

youtube.com

[свернуть]

Исполнители/Performers

David Gilmour – lead vocals; guitar; bass guitar
Jeff Porcaro – drums; percussion
Pino Palladino – bass guitar
Ian Kewley – Hammond organ; piano (not present during "Blue Light" sessions[14])

Additional musicians

Steve Winwood – Hammond organ on "Blue Light"; piano on "Love on the Air"
Anne Dudley – synthesisers
Jon Lord – synthesiser
Bob Ezrin – keyboards; orchestral arrangement
The Kick Horns – brass
Luís Jardim, Ray Cooper – percussion
Mickey Feat, Roy Harper, Sam Brown, Vicki Brown – backing vocals
The National Philharmonic Orchestra
[свернуть]

EAC лог

Exact Audio Copy V1.3 from 2. September 2016

EAC extraction logfile from 11. June 2018, 8:21

David Gilmour / About Face

Used drive : ATAPI iHAS124 D Adapter: 0 ID: 2

Read mode : Secure
Utilize accurate stream : Yes
Defeat audio cache : Yes
Make use of C2 pointers : No

Read offset correction : 6
Overread into Lead-In and Lead-Out : No
Fill up missing offset samples with silence : Yes
Delete leading and trailing silent blocks : No
Null samples used in CRC calculations : Yes
Used interface : Installed external ASPI interface

Used output format : User Defined Encoder
Selected bitrate : 1024 kBit/s
Quality : High
Add ID3 tag : No
Command line compressor : C:\Program Files (x86)\Exact Audio Copy\Flac\flac.exe
Additional command line options : -6 -V -T "ARTIST=%artist%" -T "TITLE=%title%" -T "ALBUM=%albumtitle%" -T "DATE=%year%" -T "TRACKNUMBER=%tracknr%" -T "GENRE=%genre%" -T "COMMENT=%comment%" -T "BAND=%albuminterpret%" -T "ALBUMARTIST=%albuminterpret%" -T "COMPOSER=%composer%" %haslyrics%--tag-from-file=LYRICS="%lyricsfile%"%haslyrics% -T "DISCNUMBER=%cdnumber%" -T "TOTALDISCS=%totalcds%" -T "TOTALTRACKS=%numtracks%" %hascover%--picture="%coverfile%"%hascover% %source% -o %dest%


TOC of the extracted CD

Track | Start | Length | Start sector | End sector
---------------------------------------------------------
1 | 0:00.00 | 5:19.23 | 0 | 23947
2 | 5:19.23 | 4:59.28 | 23948 | 46400
3 | 10:18.51 | 4:20.20 | 46401 | 65920
4 | 14:38.71 | 4:35.62 | 65921 | 86607
5 | 19:14.58 | 3:37.44 | 86608 | 102926
6 | 22:52.27 | 3:15.21 | 102927 | 117572
7 | 26:07.48 | 5:05.64 | 117573 | 140511
8 | 31:13.37 | 4:39.69 | 140512 | 161505
9 | 35:53.31 | 4:09.31 | 161506 | 180211
10 | 40:02.62 | 5:50.59 | 180212 | 206520


Range status and errors

Selected range

Filename C:\mm\Pink Floyd\David Gilmour\1984(2006) - About Face [0946 3 70842 2 9]\David Gilmour - About Face.wav

Peak level 100.0 %
Extraction speed 1.6 X
Range quality 99.9 %
Test CRC C150051B
Copy CRC C150051B
Copy OK

No errors occurred

End of status report

---- CUETools DB Plugin V2.1.6

[CTDB TOCID: e293UFJiVsWFUL.NDXWla1OrB0w-] found
Submit result: e293UFJiVsWFUL.NDXWla1OrB0w- has been confirmed
Track | CTDB Status
1 | (516/520) Accurately ripped
2 | (518/520) Accurately ripped
3 | (513/520) Accurately ripped, or (2/520) differs in 63 samples @03:12:15-03:12:16
4 | (517/520) Accurately ripped
5 | (517/520) Accurately ripped
6 | (518/520) Accurately ripped
7 | (516/520) Accurately ripped
8 | (518/520) Accurately ripped
9 | (515/520) Accurately ripped
10 | (516/520) Accurately ripped
[свернуть]

Файл CUE

REM GENRE Rock
REM DATE 1984
REM DISCID 7D0AC10A
REM COMMENT "ExactAudioCopy v1.3"
PERFORMER "David Gilmour"
TITLE "About Face"
REM COMPOSER ""
FILE "David Gilmour - About Face.flac" WAVE
TRACK 01 AUDIO
TITLE "Until We Sleep"
PERFORMER "David Gilmour"
REM COMPOSER ""
INDEX 01 00:00:00
TRACK 02 AUDIO
TITLE "Murder"
PERFORMER "David Gilmour"
REM COMPOSER ""
INDEX 01 05:19:23
TRACK 03 AUDIO
TITLE "Love On The Air"
PERFORMER "David Gilmour"
REM COMPOSER ""
INDEX 01 10:18:51
TRACK 04 AUDIO
TITLE "Blue Light"
PERFORMER "David Gilmour"
REM COMPOSER ""
INDEX 01 14:38:71
TRACK 05 AUDIO
TITLE "Out Of The Blue"
PERFORMER "David Gilmour"
REM COMPOSER ""
INDEX 01 19:14:58
TRACK 06 AUDIO
TITLE "All Lovers Are Deranged"
PERFORMER "David Gilmour"
REM COMPOSER ""
INDEX 01 22:52:27
TRACK 07 AUDIO
TITLE "You Know I'm Right"
PERFORMER "David Gilmour"
REM COMPOSER ""
INDEX 01 26:07:48
TRACK 08 AUDIO
TITLE "Cruise"
PERFORMER "David Gilmour"
REM COMPOSER ""
INDEX 01 31:13:37
TRACK 09 AUDIO
TITLE "Let's Get Metaphysical"
PERFORMER "David Gilmour"
REM COMPOSER ""
INDEX 01 35:53:31
TRACK 10 AUDIO
TITLE "Near the End"
PERFORMER "David Gilmour"
REM COMPOSER ""
INDEX 01 40:02:62
[свернуть]

Лог проверки качества

AUDIOCHECKER v2.0 beta (build 457) - by Dester -
~~~~~~~~~~~~~~~~~~~~~~~~~~~~~~~~~~
-=== НЕ РЕДАКТИРУЙТЕ ЭТОТ ФАЙЛ! ===-

Путь: ...\1984(2006) - About Face [0946 3 70842 2 9]

1 -=- David Gilmour - About Face.flac -=- CDDA (100%)

39976804
[свернуть]

Спектр частот

[свернуть]

Скачать David Gilmour - About Face



password: sergych
[свернуть]

Контрольная сумма (хеш-сумма) архива

MD5: 9522fff60625ec07fa9c99f7d034b565
[свернуть]
My opinion of release: 10/10
__________________
TAIFUN.Wings of Soul

Вверх
3 пользователя(ей) сказали cпасибо:
Показать список поблагодаривших
  #2
Старый 12.06.2018, 16:04
TAIFUN
Admin
Досье
 
Аватар для TAIFUN
По умолчанию Re: David Gilmour - About Face

У меня этот альбом был только из iTunes.
Спасибо за качественный рип.)
__________________
I love the music
FAQ по форуму
Правила форума
Жизнь человека - это не самое главное в его жизни...

Вверх
Пользователь сказал cпасибо:
sergych (12.06.2018)
Похожие темы
Тема Автор Раздел Ответов Последнее сообщение
Альбом David Gilmour - On An Island sergych Progressive Rock 1 17.07.2018 21:34
Альбом David Gilmour - Rattle That Lock TAIFUN Progressive Rock 2 12.06.2018 18:34
Альбом David Gilmour - David Gilmour sergych Progressive Rock 1 10.06.2018 19:07
Live David Gilmour - Le Zenith, Paris, France sergych Progressive Rock 0 16.11.2010 11:19
Live David Gilmour - Live In Hammersmith Odeon sergych Progressive Rock 0 15.11.2010 12:32


Метки
1984 , about face , alternative rock , art rock , david gilmour , progressive rock , psychedelic rock , rock

Опции темы

Ваши права в разделе
Вы не можете создавать новые темы
Вы не можете отвечать в темах
Вы не можете прикреплять вложения
Вы не можете редактировать свои сообщения

Быстрый переход



Текущее время: 20:37. Часовой пояс GMT +3.
Powered by vBulletin® Version 3.8.10
Copyright ©2000 - 2018, vBulletin Solutions, Inc. Перевод: zCarot
© 2008 - 2018 Taifun With Song
Яндекс.Метрика