TAIFUN With Song
Навигация
Вернуться   TAIFUN With Song > Music (обменник) > Rock > Progressive Rock
Расширенный поиск
Progressive Rock Единственной универсальной характеристикой прогрессивного рока является усложнение музыкальной формы. Это проявляется в удлиннении и усложнении музыкальных пьес, тяготении к циклическим формам академической музыки; расширении репертуара используемых тембров, усложнении метра и ритма, использовании нетрадиционных для рока мелодических и гармонических решений; поэзии, уходящей от тем развлекательной музыки и тяготеющей к философским «вечным темам», фантастической и фентезийной тематике; переплетении с классической и современной академической музыкой, джазом.

А знаете ли Вы, что...
Какая консерватория носит имя композитора, которому отказала в приёме?
«Миланская консерватория носит имя Джузеппе Верди, хотя в 1833 году отказала ему в зачислении. Юному Верди было сказано, что он на 4 года старше обычного возраста принимаемых, не является гражданином Ломбардо-Венецианского королевства и лишён музыкального таланта.»
 
Опции темы

  #1
Старый 15.08.2018, 07:58
sergych
Координатор
Досье
 
Аватар для sergych
Релиз Roger Waters - Radio K.A.O.S.


1987 - Roger Waters - Radio K.A.O.S.




Исполнитель/Artist: Roger Waters
Альбом/Album: Radio K.A.O.S.
Год/Year: 1987
Жанр/Genre: rock, Progressive Rock
Страна/Country: Соединённые Штаты
Рекорд-лейбл/Record label: Sony Music
Формат/Format: Free Lossless Audio Codec (*.flac)
Качество/Quality: Lossless
Тип рипа/RIP Type: image+.cue
Продолжительность/Length: 00:41:24
Источник/Source: Собственный рип
Размер/Size: 270.5 MB

Сканы в комплекте

Треклист

01. Radio Waves [0:04:58.12]
02. Who Needs Information [0:05:55.53]
03. Me Or Him [0:05:23.50]
04. The Powers That Be [0:04:36.40]
05. Sunset Strip [0:04:45.27]
06. Home [0:06:00.25]
07. Four Minutes [0:04:00.13]
08. The Tide Is Turning (After Live Aid) [0:05:43.57]
[свернуть]

youtube.com

[свернуть]

Исполнители/Performers

Roger Waters – vocals, acoustic and electric guitars, bass guitar, keyboards, shakuhachi
Graham Broad – percussion, drums
Mel Collins – saxophones
Nick Glennie-Smith – DX7 and E-mu on "Powers That Be"
Matt Irving – Hammond organ on "Powers That Be"
John Lingwood – drums on "Powers That Be"
Andy Fairweather Low – electric guitars
Suzanne Rhatigan – main background vocals on "Radio Waves", "Me or Him", "Sunset Strip" and "The Tide Is Turning"
Ian Ritchie – piano, keyboards, tenor saxophone, Fairlight programming, drum programming
Jay Stapley – electric guitars
John Phirkell – trumpet
Peter Thoms – trombone
Katie Kissoon, Doreen Chanter, Madeline Bell, Steve Langer & Vicki Brown – background vocals on "Who Needs Information", "Powers That Be" and "Radio Waves"
Clare Torry – vocals on "Home" and "Four Minutes"
Paul Carrack – vocals on "The Powers That Be"
Pontarddulais Male Voice Choir - chorus
[свернуть]

EAC лог

Exact Audio Copy V1.3 from 2. September 2016

EAC extraction logfile from 30. July 2018, 21:26

Roger Waters / Radio K.A.O.S.

Used drive : ATAPI iHAS124 D Adapter: 0 ID: 2

Read mode : Secure
Utilize accurate stream : Yes
Defeat audio cache : Yes
Make use of C2 pointers : No

Read offset correction : 6
Overread into Lead-In and Lead-Out : No
Fill up missing offset samples with silence : Yes
Delete leading and trailing silent blocks : No
Null samples used in CRC calculations : Yes
Used interface : Installed external ASPI interface

Used output format : User Defined Encoder
Selected bitrate : 1024 kBit/s
Quality : High
Add ID3 tag : No
Command line compressor : C:\Program Files (x86)\Exact Audio Copy\Flac\flac.exe
Additional command line options : -6 -V -T "ARTIST=%artist%" -T "TITLE=%title%" -T "ALBUM=%albumtitle%" -T "DATE=%year%" -T "TRACKNUMBER=%tracknr%" -T "GENRE=%genre%" -T "COMMENT=%comment%" -T "BAND=%albuminterpret%" -T "ALBUMARTIST=%albuminterpret%" -T "COMPOSER=%composer%" %haslyrics%--tag-from-file=LYRICS="%lyricsfile%"%haslyrics% -T "DISCNUMBER=%cdnumber%" -T "TOTALDISCS=%totalcds%" -T "TOTALTRACKS=%numtracks%" %hascover%--picture="%coverfile%"%hascover% %source% -o %dest%


TOC of the extracted CD

Track | Start | Length | Start sector | End sector
---------------------------------------------------------
1 | 0:00.00 | 4:58.12 | 0 | 22361
2 | 4:58.12 | 5:55.53 | 22362 | 49039
3 | 10:53.65 | 5:23.50 | 49040 | 73314
4 | 16:17.40 | 4:36.40 | 73315 | 94054
5 | 20:54.05 | 4:45.27 | 94055 | 115456
6 | 25:39.32 | 6:00.25 | 115457 | 142481
7 | 31:39.57 | 4:00.13 | 142482 | 160494
8 | 35:39.70 | 5:43.57 | 160495 | 186276


Range status and errors

Selected range

Filename C:\mm\Pink Floyd\Roger Waters\1987 - Radio K.A.O.S. [509591 2]\Roger Waters - Radio K.A.O.S..wav

Peak level 100.0 %
Extraction speed 1.6 X
Range quality 99.9 %
Test CRC 55356191
Copy CRC 55356191
Copy OK

No errors occurred

End of status report

---- CUETools DB Plugin V2.1.6

[CTDB TOCID: 281uYBcdlp.A_KtPSFjwtTYQ_jE-] found
Submit result: 281uYBcdlp.A_KtPSFjwtTYQ_jE- has been confirmed
Track | CTDB Status
1 | (407/408) Accurately ripped
2 | (408/408) Accurately ripped
3 | (408/408) Accurately ripped
4 | (408/408) Accurately ripped
5 | (408/408) Accurately ripped
6 | (406/408) Accurately ripped
7 | (407/408) Accurately ripped
8 | (401/408) Accurately ripped, or (5/408) differs in 177 samples @01:14:21-01:14:22
[свернуть]

Файл CUE

REM GENRE "Progressive Rock"
REM DATE 1987
REM DISCID 5A09B308
REM COMMENT "ExactAudioCopy v1.3"
PERFORMER "Roger Waters"
TITLE "Radio K.A.O.S."
REM COMPOSER ""
FILE "Roger Waters - Radio K.A.O.S..flac" WAVE
TRACK 01 AUDIO
TITLE "Radio Waves"
PERFORMER "Roger Waters"
REM COMPOSER ""
INDEX 01 00:00:00
TRACK 02 AUDIO
TITLE "Who Needs Information"
PERFORMER "Roger Waters"
REM COMPOSER ""
INDEX 01 04:58:12
TRACK 03 AUDIO
TITLE "Me Or Him"
PERFORMER "Roger Waters"
REM COMPOSER ""
INDEX 01 10:53:65
TRACK 04 AUDIO
TITLE "The Powers That Be"
PERFORMER "Roger Waters"
REM COMPOSER ""
INDEX 01 16:17:40
TRACK 05 AUDIO
TITLE "Sunset Strip"
PERFORMER "Roger Waters"
REM COMPOSER ""
INDEX 01 20:54:05
TRACK 06 AUDIO
TITLE "Home"
PERFORMER "Roger Waters"
REM COMPOSER ""
INDEX 01 25:39:32
TRACK 07 AUDIO
TITLE "Four Minutes"
PERFORMER "Roger Waters"
REM COMPOSER ""
INDEX 01 31:39:57
TRACK 08 AUDIO
TITLE "The Tide Is Turning (After Live Aid)"
PERFORMER "Roger Waters"
REM COMPOSER ""
INDEX 01 35:39:70
[свернуть]

Лог проверки качества

AUDIOCHECKER v2.0 beta (build 457) - by Dester -
~~~~~~~~~~~~~~~~~~~~~~~~~~~~~~~~~~
-=== НЕ РЕДАКТИРУЙТЕ ЭТОТ ФАЙЛ! ===-

Путь: ...\1987 - Radio K.A.O.S. [509591 2]

1 -=- Roger Waters - Radio K.A.O.S..flac -=- MPEG (95%)

268433748
[свернуть]

Спектр частот

[свернуть]

Скачать Roger Waters - Radio K.A.O.S.



password: sergych
[свернуть]

Контрольная сумма (хеш-сумма) архива

MD5: cceeae4cb5845660882eac590d0be349
[свернуть]
My opinion of release: 10/10

Release info RInfo

Второй сольник английского рок-музыканта и бывшего участника Pink Floyd Роджера Уотерса (или первый сольный альбом Уотерса после его официального раскола Pink Floyd в 1985 году). Как и его предыдущие и будущие студийные альбомы и многие его работы во время его Pink Floyd, альбом представляет собой концептуальный альбом, основанный на ряде ключевых тематических сюжетов конца 1980-х годов, включая монетаризм и его влияние на граждан, популярную культуру того времени, события и последствия «холодной войны». Он критикует правительство Маргарет Тэтчер, так же как и в The Final Cut Pink Floyd, еще один альбом, задуманный Уотерсом. Альбом следует за Билли, умственно и физически инвалидом из Уэльса, вынужденным жить со своим дядей Дэвидом в Лос-Анджелесе. Альбом исследует ум Билли и взгляд на мир посредством эфирного разговора между ним и Джим, диск-жокеем на местной фиктивной радиостанции под названием Radio KAOS.
__________________
TAIFUN.Wings of Soul

Вверх
4 пользователя(ей) сказали cпасибо:
Показать список поблагодаривших
Похожие темы
Тема Автор Раздел Ответов Последнее сообщение
Live Roger Waters - In The Flesh sergych Progressive Rock 3 04.07.2018 22:40
Live Roger Waters - Roger Waters: The Wall sergych Progressive Rock 0 23.10.2016 01:10
Сборник Roger Waters - Flickering Flame sergych Progressive Rock 0 11.07.2015 17:29
Альбом Roger Waters - The Collection {Boxset} sergych Progressive Rock 5 21.08.2014 19:15
Альбом Roger Waters - Amused To Death sergych Progressive Rock 1 18.09.2012 11:49


Метки
1987 , progressive rock , radio k.a.o.s. , rock , roger waters

Опции темы

Ваши права в разделе
Вы не можете создавать новые темы
Вы не можете отвечать в темах
Вы не можете прикреплять вложения
Вы не можете редактировать свои сообщения

Быстрый переход



Текущее время: 00:30. Часовой пояс GMT +3.
Powered by vBulletin® Version 3.8.10
Copyright ©2000 - 2018, vBulletin Solutions, Inc. Перевод: zCarot
© 2008 - 2018 Taifun With Song
Яндекс.Метрика