TAIFUN With Song
Навигация
Вернуться   TAIFUN With Song > Music (обменник) > Rock > Pop Rock
Расширенный поиск
Pop Rock Поп-рок — жанр музыки, объединяющий элементы поп-музыки и рок-музыки. Песни характеризуются простой структурой, запоминающимися мелодиями, повторением музыкальных фраз (от попа), использованием в качестве основных инструментов электрогитар и ударных и агрессивным настроением (от рока).

А знаете ли Вы, что...
Какой русский поп-певец имеет самую большую армию поклонников?
«Витас — самый популярный современный русский исполнитель в Китае, что ставит его на первое место среди всех русских исполнителей по общему числу поклонников в мире.»
 
Опции темы

  #1
Старый 06.12.2015, 18:27
sergych
Координатор
Досье
 
Аватар для sergych
Релиз Chris Rea - The Road To Hell


1989 - Chris Rea - The Road To Hell




Исполнитель/Artist: Chris Rea
Альбом/Album: The Road To Hell
Год/Year: 1989
Жанр/Genre: Blues rock, soft rock, pop rock
Страна/Country: Германия
Рекорд-лейбл/Record label: Magnet Records / WEA Records
Номер в каталоге/Catalogue #: 2292-46285-2
Формат/Format: Free Lossless Audio Codec (*.flac)
Качество/Quality: Lossless
Тип рипа/RIP Type: image+.cue
Продолжительность/Length: 00:50:58
Источник/Source: Собственный рип
Размер/Size: 336.4 MB

Сканы в комплекте

Треклист

01. The Road To Hell (Part 1) [0:04:53.65]
02. The Road To Hell (Part 2) [0:04:33.00]
03. You Must Be Evil [0:04:22.58]
04. Texas [0:05:11.20]
05. Looking For A Rainbow [0:08:04.42]
06. Your Warm And Tender Love [0:04:33.50]
07. Daytona [0:05:07.10]
08. That's What They Always Say [0:04:28.15]
09. I Just Wanna Be With You [0:03:41.38]
10. Tell Me There's A Heaven [0:06:01.70]
[свернуть]

youtube.com

[свернуть]

Исполнители/Performers

Chris Rea — vocals, guitar, keyboards, producer
Robert Ahwai — guitar
Eoghan O'Neill — bass
Kevin Leach — keyboards
Max Middleton — piano, string arrangements
Martin Ditcham — drums, percussion
Linda Taylor, Karen Boddington, Carol Kenyon — additional vocals
[свернуть]

EAC лог

Exact Audio Copy V1.0 beta 3 from 29. August 2011

EAC extraction logfile from 23. September 2015, 0:43

Chris Rea / The Road To Hell

Used drive : ATAPI iHAS124 D Adapter: 0 ID: 2

Read mode : Secure
Utilize accurate stream : Yes
Defeat audio cache : Yes
Make use of C2 pointers : No

Read offset correction : 6
Overread into Lead-In and Lead-Out : No
Fill up missing offset samples with silence : Yes
Delete leading and trailing silent blocks : No
Null samples used in CRC calculations : Yes
Used interface : Installed external ASPI interface

Used output format : User Defined Encoder
Selected bitrate : 1024 kBit/s
Quality : High
Add ID3 tag : No
Command line compressor : C:\Program Files (x86)\Exact Audio Copy\Flac\flac.exe
Additional command line options : -6 -V -T "ARTIST=%artist%" -T "TITLE=%title%" -T "ALBUM=%albumtitle%" -T "DATE=%year%" -T "TRACKNUMBER=%tracknr%" -T "GENRE=%genre%" -T "COMMENT=%comment%" -T "BAND=%albuminterpret%" -T "COMPOSER=%composer%" %haslyrics%--tag-from-file=LYRICS="%lyricsfile%"%haslyrics% -T "DISCNUMBER=%cdnumber%" -T "TOTALDISCS=%totalcds%" -T "TOTALTRACKS=%numtracks%" %hascover%--picture="%coverfile%"%hascover% %source% -o %dest%


TOC of the extracted CD

Track | Start | Length | Start sector | End sector
---------------------------------------------------------
1 | 0:00.00 | 4:53.65 | 0 | 22039
2 | 4:53.65 | 4:33.00 | 22040 | 42514
3 | 9:26.65 | 4:22.58 | 42515 | 62222
4 | 13:49.48 | 5:11.20 | 62223 | 85567
5 | 19:00.68 | 8:04.42 | 85568 | 121909
6 | 27:05.35 | 4:33.50 | 121910 | 142434
7 | 31:39.10 | 5:07.10 | 142435 | 165469
8 | 36:46.20 | 4:28.15 | 165470 | 185584
9 | 41:14.35 | 3:41.38 | 185585 | 202197
10 | 44:55.73 | 6:01.70 | 202198 | 229342


Range status and errors

Selected range

Filename C:\mm\Chris Rea\1989 - The Road To Hell [2292-46285-2]\Chris Rea - The Road To Hell.wav

Peak level 99.0 %
Extraction speed 8.3 X
Range quality 99.9 %
Test CRC 4B4F9E7E
Copy CRC 4B4F9E7E
Copy OK

No errors occurred


AccurateRip summary

Track 1 accurately ripped (confidence 200) [6FE205F3] (AR v2)
Track 2 accurately ripped (confidence 200) [2EB5D59F] (AR v2)
Track 3 accurately ripped (confidence 200) [479FB9CE] (AR v2)
Track 4 accurately ripped (confidence 200) [8F0AA919] (AR v2)
Track 5 accurately ripped (confidence 200) [A1FA49EB] (AR v2)
Track 6 accurately ripped (confidence 200) [664150C5] (AR v2)
Track 7 accurately ripped (confidence 200) [1DB9B1DB] (AR v2)
Track 8 accurately ripped (confidence 200) [0DB54572] (AR v2)
Track 9 accurately ripped (confidence 200) [CCD3ED85] (AR v2)
Track 10 accurately ripped (confidence 200) [7DA545DB] (AR v2)

All tracks accurately ripped

End of status report
[свернуть]

Файл CUE

REM GENRE "Blues Rock"
REM DATE 1989
REM DISCID 8B0BF10A
REM COMMENT "ExactAudioCopy v1.0b3"
PERFORMER "Chris Rea"
TITLE "The Road To Hell"
FILE "Chris Rea - The Road To Hell.flac" WAVE
TRACK 01 AUDIO
TITLE "The Road To Hell (Part 1)"
PERFORMER "Chris Rea"
INDEX 01 00:00:00
TRACK 02 AUDIO
TITLE "The Road To Hell (Part 2)"
PERFORMER "Chris Rea"
INDEX 01 04:53:65
TRACK 03 AUDIO
TITLE "You Must Be Evil"
PERFORMER "Chris Rea"
INDEX 00 09:23:70
INDEX 01 09:26:65
TRACK 04 AUDIO
TITLE "Texas"
PERFORMER "Chris Rea"
INDEX 00 13:48:15
INDEX 01 13:49:48
TRACK 05 AUDIO
TITLE "Looking For A Rainbow"
PERFORMER "Chris Rea"
INDEX 00 18:58:25
INDEX 01 19:00:68
TRACK 06 AUDIO
TITLE "Your Warm And Tender Love"
PERFORMER "Chris Rea"
INDEX 00 27:03:13
INDEX 01 27:05:35
TRACK 07 AUDIO
TITLE "Daytona"
PERFORMER "Chris Rea"
INDEX 00 31:38:50
INDEX 01 31:39:10
TRACK 08 AUDIO
TITLE "That's What They Always Say"
PERFORMER "Chris Rea"
INDEX 00 36:44:03
INDEX 01 36:46:20
TRACK 09 AUDIO
TITLE "I Just Wanna Be With You"
PERFORMER "Chris Rea"
INDEX 00 41:13:30
INDEX 01 41:14:35
TRACK 10 AUDIO
TITLE "Tell Me There's A Heaven"
PERFORMER "Chris Rea"
INDEX 00 44:53:63
INDEX 01 44:55:73
[свернуть]

Лог проверки качества

AUDIOCHECKER v2.0 beta (build 457) - by Dester -
~~~~~~~~~~~~~~~~~~~~~~~~~~~~~~~~~~
-=== НЕ РЕДАКТИРУЙТЕ ЭТОТ ФАЙЛ! ===-

Путь: ...\1989 - The Road To Hell [2292-46285-2]

1 -=- Chris Rea - The Road To Hell.flac -=- CDDA (100%)

154253428
[свернуть]

Спектр частот

[свернуть]

Скачать Chris Rea - The Road To Hell



password: sergych
[свернуть]
My opinion of release: 10/10
__________________
TAIFUN.Wings of Soul

Вверх
Пользователь сказал cпасибо:
Chert (22.12.2015)
Похожие темы
Тема Автор Раздел Ответов Последнее сообщение
Альбом Chris Rea - Dancing Down The Stony Road sergych Jazz и Blues 0 19.09.2015 16:41
Альбом Chris Rea - The Road to Hell, Part 2 sergych Blues Rock 0 28.11.2013 21:42
Альбом Chris Rea - Stony Road sergych Blues Rock 0 06.11.2013 18:53
Релиз The Road To Consciousness Project – Road To Consciousness PUPOKIN Gothic Metal 0 02.02.2011 11:18
Альбом Chris de Burgh - The Road To Freedom sergych Soft Rock 0 08.06.2008 00:32


Метки
1989 , blues rock , chris rea , pop rock , soft rock , the road to hell

Опции темы

Ваши права в разделе
Вы не можете создавать новые темы
Вы не можете отвечать в темах
Вы не можете прикреплять вложения
Вы не можете редактировать свои сообщения

Быстрый переход



Текущее время: 00:31. Часовой пояс GMT +3.
Powered by vBulletin® Version 3.8.10
Copyright ©2000 - 2018, vBulletin Solutions, Inc. Перевод: zCarot
© 2008 - 2018 Taifun With Song
Яндекс.Метрика