TAIFUN With Song
Навигация
Вернуться   TAIFUN With Song > Music (обменник) > Rock > Blues Rock
Расширенный поиск
Blues Rock К концу сороковых годов прошлого столетия в блюзе окончательно обосновалась электрогитара. Трудно сказать, что подтолкнуло многих блюзменов перейти с привычной акустической гитары на электрическую, но блюз с тех пор очень сильно изменился.

А знаете ли Вы, что...
Какая песня, часто приписываемая Элвису Пресли, никогда им не записывалась?
«Песню «Only You» часто приписывают Элвису Пресли, хотя на самом деле наиболее известными её исполнителями является группа «The Platters». Элвис пел «Only You» на некоторых концертах, но не существует ни одной аудио- или видеозаписи этой композиции в его исполнении.»
 
Опции темы

  #1
Старый 09.04.2015, 19:48
sergych
Координатор
Досье
 
Аватар для sergych
Релиз Joe Cocker - The Essential Joe Cocker


1995 - Joe Cocker - The Essential Joe Cocker




Исполнитель/Artist: Joe Cocker
Альбом/Album: The Essential Joe Cocker
Год/Year: 1995
Жанр/Genre: blues rock, rock
Страна/Country: Германия
Рекорд-лейбл/Record label: Karussell / Spectrum Music
Номер в каталоге/Catalogue #: 551 408-2
Формат/Format: Free Lossless Audio Codec (*.flac)
Качество/Quality: Lossless
Тип рипа/RIP Type: image+.cue
Продолжительность/Length: 00:54:45
Источник/Source: Собственный рип
Размер/Size: 363.5 MB

Сканы в комплекте

Треклист

01. Up Where We Belong (with Jennifer Warnes) [0:03:53.67]
02. Sweet Lil' Woman [0:04:03.60]
03. Easy Rider [0:02:55.53]
04. Threw It Away [0:03:29.72]
05. Ruby Lee [0:04:26.33]
06. Many Rivers To Cross [0:03:43.35]
07. Talking Back To The Night [0:04:50.45]
08. Honky Tonk Women [0:03:43.12]
09. Sticks And Stones [0:02:31.55]
10. Cry Me A River [0:03:58.30]
11. Please Give Peace A Chance [0:04:17.68]
12. She Came In Through The Bathroom Window [0:02:48.30]
13. The Letter [0:04:18.10]
14. Delta Lady [0:05:43.05]
[свернуть]

youtube.com

[свернуть]

EAC лог

Exact Audio Copy V1.0 beta 3 from 29. August 2011

EAC extraction logfile from 9. April 2015, 20:04

Joe Cocker / The Essential

Used drive : ATAPI iHAS124 D Adapter: 0 ID: 2

Read mode : Secure
Utilize accurate stream : Yes
Defeat audio cache : Yes
Make use of C2 pointers : No

Read offset correction : 6
Overread into Lead-In and Lead-Out : No
Fill up missing offset samples with silence : Yes
Delete leading and trailing silent blocks : No
Null samples used in CRC calculations : Yes
Used interface : Installed external ASPI interface

Used output format : User Defined Encoder
Selected bitrate : 1024 kBit/s
Quality : High
Add ID3 tag : No
Command line compressor : C:\Program Files (x86)\Exact Audio Copy\Flac\flac.exe
Additional command line options : -6 -V -T "ARTIST=%artist%" -T "TITLE=%title%" -T "ALBUM=%albumtitle%" -T "DATE=%year%" -T "TRACKNUMBER=%tracknr%" -T "GENRE=%genre%" -T "COMMENT=%comment%" -T "BAND=%albuminterpret%" -T "COMPOSER=%composer%" %haslyrics%--tag-from-file=LYRICS="%lyricsfile%"%haslyrics% -T "DISCNUMBER=%cdnumber%" -T "TOTALDISCS=%totalcds%" -T "TOTALTRACKS=%numtracks%" %hascover%--picture="%coverfile%"%hascover% %source% -o %dest%


TOC of the extracted CD

Track | Start | Length | Start sector | End sector
---------------------------------------------------------
1 | 0:00.00 | 3:53.67 | 0 | 17541
2 | 3:53.67 | 4:03.60 | 17542 | 35826
3 | 7:57.52 | 2:55.53 | 35827 | 49004
4 | 10:53.30 | 3:29.72 | 49005 | 64751
5 | 14:23.27 | 4:26.33 | 64752 | 84734
6 | 18:49.60 | 3:43.35 | 84735 | 101494
7 | 22:33.20 | 4:50.45 | 101495 | 123289
8 | 27:23.65 | 3:43.12 | 123290 | 140026
9 | 31:07.02 | 2:31.55 | 140027 | 151406
10 | 33:38.57 | 3:58.30 | 151407 | 169286
11 | 37:37.12 | 4:17.68 | 169287 | 188629
12 | 41:55.05 | 2:48.30 | 188630 | 201259
13 | 44:43.35 | 4:18.10 | 201260 | 220619
14 | 49:01.45 | 5:43.05 | 220620 | 246349


Range status and errors

Selected range

Filename C:\mm\Joe Cocker\1995 - The Essential [551 408-2]\Joe Cocker - The Essential.wav

Peak level 100.0 %
Extraction speed 8.8 X
Range quality 100.0 %
Test CRC 51810273
Copy CRC 51810273
Copy OK

No errors occurred


AccurateRip summary

Track 1 accurately ripped (confidence 20) [59695ABE] (AR v2)
Track 2 accurately ripped (confidence 20) [E38E342C] (AR v2)
Track 3 accurately ripped (confidence 18) [EED5363E] (AR v2)
Track 4 accurately ripped (confidence 19) [8A4DEC24] (AR v2)
Track 5 accurately ripped (confidence 19) [AE05F314] (AR v2)
Track 6 accurately ripped (confidence 19) [B1A1EDC4] (AR v2)
Track 7 accurately ripped (confidence 20) [9ACEF648] (AR v2)
Track 8 accurately ripped (confidence 19) [A216002F] (AR v2)
Track 9 accurately ripped (confidence 18) [02E3A279] (AR v2)
Track 10 accurately ripped (confidence 18) [FDA81ED1] (AR v2)
Track 11 accurately ripped (confidence 18) [AC6DDA95] (AR v2)
Track 12 accurately ripped (confidence 18) [616FA234] (AR v2)
Track 13 accurately ripped (confidence 18) [7243053D] (AR v2)
Track 14 accurately ripped (confidence 17) [D0EA3595] (AR v2)

All tracks accurately ripped

End of status report
[свернуть]

Файл CUE

REM GENRE "Blues Rock"
REM DATE 1995
REM DISCID CB0CD40E
REM COMMENT "ExactAudioCopy v1.0b3"
PERFORMER "Joe Cocker"
TITLE "The Essential"
FILE "Joe Cocker - The Essential.flac" WAVE
TRACK 01 AUDIO
TITLE "Up Where We Belong"
PERFORMER "Joe Cocker"
INDEX 01 00:00:00
TRACK 02 AUDIO
TITLE "Sweet Lil' Woman"
PERFORMER "Joe Cocker"
INDEX 00 03:52:12
INDEX 01 03:53:67
TRACK 03 AUDIO
TITLE "Easy Rider"
PERFORMER "Joe Cocker"
INDEX 00 07:55:72
INDEX 01 07:57:52
TRACK 04 AUDIO
TITLE "Threw It Away"
PERFORMER "Joe Cocker"
INDEX 00 10:51:50
INDEX 01 10:53:30
TRACK 05 AUDIO
TITLE "Ruby Lee"
PERFORMER "Joe Cocker"
INDEX 00 14:21:47
INDEX 01 14:23:27
TRACK 06 AUDIO
TITLE "Many Rivers To Cross"
PERFORMER "Joe Cocker"
INDEX 00 18:48:05
INDEX 01 18:49:60
TRACK 07 AUDIO
TITLE "Talking Back To The Night"
PERFORMER "Joe Cocker"
INDEX 00 22:31:40
INDEX 01 22:33:20
TRACK 08 AUDIO
TITLE "Honky Tonk Women"
PERFORMER "Joe Cocker"
INDEX 00 27:22:10
INDEX 01 27:23:65
TRACK 09 AUDIO
TITLE "Sticks And Stones"
PERFORMER "Joe Cocker"
INDEX 00 31:05:20
INDEX 01 31:07:02
TRACK 10 AUDIO
TITLE "Cry Me A River"
PERFORMER "Joe Cocker"
INDEX 00 33:37:02
INDEX 01 33:38:57
TRACK 11 AUDIO
TITLE "Please Give Peace A Chance"
PERFORMER "Joe Cocker"
INDEX 00 37:35:32
INDEX 01 37:37:12
TRACK 12 AUDIO
TITLE "She Came In Through The Bathroom Window"
PERFORMER "Joe Cocker"
INDEX 00 41:53:22
INDEX 01 41:55:05
TRACK 13 AUDIO
TITLE "The Letter"
PERFORMER "Joe Cocker"
INDEX 00 44:41:55
INDEX 01 44:43:35
TRACK 14 AUDIO
TITLE "Delta Lady"
PERFORMER "Joe Cocker"
INDEX 00 48:59:65
INDEX 01 49:01:45
[свернуть]

Лог проверки качества

AUDIOCHECKER v2.0 beta (build 457) - by Dester -
~~~~~~~~~~~~~~~~~~~~~~~~~~~~~~~~~~
-=== НЕ РЕДАКТИРУЙТЕ ЭТОТ ФАЙЛ! ===-

Путь: ...\1995 - The Essential [551 408-2]

1 -=- Joe Cocker - The Essential.flac -=- CDDA (100%)

5420436
[свернуть]

Спектр частот

[свернуть]

Скачать Joe Cocker - The Essential Joe Cocker



password: sergych
[свернуть]
My opinion of release: 10/10
__________________
TAIFUN.Wings of Soul

Вверх
2 пользователя(ей) сказали cпасибо:
kinkkm (01.09.2016), TAIFUN (11.04.2015)
Похожие темы
Тема Автор Раздел Ответов Последнее сообщение
Альбом Joe Cocker - Have a Little Faith sergych Blues Rock 0 27.04.2014 11:19
Сборник Joe Cocker - Joe Cocker's Greatest Hits sergych Blues Rock 0 15.04.2014 19:31
Альбом Joe Cocker - Cocker sergych Blues Rock 0 20.02.2014 20:05
Сборник Joe Cocker - The Best Of Joe PUPOKIN Blues Rock 0 30.12.2008 11:14


Метки
1995 , blues rock , joe cocker , rock , the essential joe cocker

Опции темы

Ваши права в разделе
Вы не можете создавать новые темы
Вы не можете отвечать в темах
Вы не можете прикреплять вложения
Вы не можете редактировать свои сообщения

Быстрый переход



Текущее время: 00:30. Часовой пояс GMT +3.
Powered by vBulletin® Version 3.8.10
Copyright ©2000 - 2018, vBulletin Solutions, Inc. Перевод: zCarot
© 2008 - 2018 Taifun With Song
Яндекс.Метрика