TAIFUN With Song
Навигация
Вернуться   TAIFUN With Song > Music (обменник) > Club & Electronic Music > GOA
Расширенный поиск
GOA Поклонники Goa Trance музыки считают, что она является лучшим (если не единственным) способом достичь измененных состояний сознания без применения химических средств. Является ли только это истиной...

А знаете ли Вы, что...
Где собачий вальс зовут ослиным маршем, а где — кошачьей полькой?
«Собачий вальс в разных странах называется по-разному. В Германии, Бельгии, Нидерландах — блошиный вальс. В Болгарии — кошачий марш, а в Финляндии — кошачья полька. В Венгрии — ослиный марш, а во Франции его почему-то называют отбивной котлетой.»
 
Опции темы

  #1
Старый 31.05.2014, 05:20
TAIFUN
Admin
Досье
 
Аватар для TAIFUN
По умолчанию Space Buddha - No Shields


2008 - Space Buddha - No Shields




Исполнитель/Artist: Space Buddha
Альбом/Album: No Shields
Год/Year: 2008
Жанр/Genre: Goa Trance
Страна/Country: Израиль
Рекорд-лейбл/Record label: Agitato Records
Номер в каталоге/Catalogue #: AGE1056
Формат/Format: Free Lossless Audio Codec (*.flac)
Качество/Quality: Lossless
Тип рипа/RIP Type: tracks+.cue
Продолжительность/Length: 01:06:41
Источник/Source: Из интернета
Размер/Size: 509 MB

Сканы в комплекте

Треклист

01. Space Buddha - Legendary Lighting
02. Space Buddha - No Shields
03. Space Buddha vs. Digital Eclipce* - Neutral Ground
04. Space Buddha - Magnet Man
05. Space Buddha - World Domination
06. Space Buddha vs. Toast3d - Rejected
07. Space Buddha - Walk Thru Time
08. Space Buddha - In The Zone
09. Space Buddha - Self Therapy
[свернуть]

youtube.com

[свернуть]

Файл CUE

REM GENRE Goa / Psychedelic
REM DATE 2008
PERFORMER "Space Buddha, Space Buddha vs. Digital Eclipce*, Space Buddha vs. Toast3d"
TITLE "No Shields"
FILE "01. Legendary Lighting.flac" WAVE
TRACK 01 AUDIO
TITLE "Legendary Lighting"
PERFORMER "Space Buddha"
INDEX 01 00:00:00
FILE "02. No Shields.flac" WAVE
TRACK 02 AUDIO
TITLE "No Shields"
PERFORMER "Space Buddha"
INDEX 01 00:00:00
FILE "03. Neutral Ground.flac" WAVE
TRACK 03 AUDIO
TITLE "Neutral Ground"
PERFORMER "Space Buddha vs. Digital Eclipce*"
INDEX 01 00:00:00
FILE "04. Magnet Man.flac" WAVE
TRACK 04 AUDIO
TITLE "Magnet Man"
PERFORMER "Space Buddha"
INDEX 01 00:00:00
FILE "05. World Domination.flac" WAVE
TRACK 05 AUDIO
TITLE "World Domination"
PERFORMER "Space Buddha"
INDEX 01 00:00:00
FILE "06. Rejected.flac" WAVE
TRACK 06 AUDIO
TITLE "Rejected"
PERFORMER "Space Buddha vs. Toast3d"
INDEX 01 00:00:00
FILE "07. Walk Thru Time.flac" WAVE
TRACK 07 AUDIO
TITLE "Walk Thru Time"
PERFORMER "Space Buddha"
INDEX 01 00:00:00
FILE "08. In The Zone.flac" WAVE
TRACK 08 AUDIO
TITLE "In The Zone"
PERFORMER "Space Buddha"
INDEX 01 00:00:00
FILE "09. Self Therapy.flac" WAVE
TRACK 09 AUDIO
TITLE "Self Therapy"
PERFORMER "Space Buddha"
INDEX 01 00:00:00
[свернуть]

Лог проверки качества

AUDIOCHECKER v2.0 beta (build 457) - by Dester -
~~~~~~~~~~~~~~~~~~~~~~~~~~~~~~~~~~
-=== DO NOT EDIT THIS FILE! ===-

Path: ...\Space_Buddha_-_No_Shields-(FLAC)-2008-CALF

1 -=- 01-Space_Buddha_-_Legendary_Lighting-CALF.flac -=- CDDA (100%)
2 -=- 02-Space_Buddha_-_No_Shields-CALF.flac -=- CDDA (100%)
3 -=- 03-Space_Buddha_-_Neutral_Ground_(vs. Digital_Eclipse)-CALF.flac -=- CDDA (100%)
4 -=- 04-Space_Buddha_-_Magnet_Man-CALF.flac -=- CDDA (100%)
5 -=- 05-Space_Buddha_-_World_Domination-CALF.flac -=- CDDA (100%)
6 -=- 06-Space_Buddha_-_Rejected_(vs.Toast3d)-CALF.flac -=- CDDA (100%)
7 -=- 07-Space_Buddha_-_Walk_Thru_Time-CALF.flac -=- CDDA (100%)
8 -=- 08-Space_Buddha_-_In_The_Zone-CALF.flac -=- CDDA (100%)
9 -=- 09-Space_Buddha_-_Self_Therapy-CALF.flac -=- CDDA (100%)

Summary 100,00% CDDA

46505812
[свернуть]

Скачать Space Buddha - No Shields

[свернуть]
My opinion of release: 10/10

Release info RInfo

Великолепный альбом от гениев Goa Trance сцены. Данный альбом получился более зажигательным.

Лично для меня, Space Buddha - это образец жанра Goa Trance.
Красивые мелодии, без жёстко-затяжного психодела, а мелодичный psy. Гармоничное сплетение.

Для всей выложенной мною дискографии Space Buddha были приведены в порядок теги, имена файлов, .cue (+ созданы при отсутствии таковых (без учёта длительности композиций))

Вверх
3 пользователя(ей) сказали cпасибо:
Показать список поблагодаривших
  #2
Старый 15.09.2018, 18:59
Zarohoff
Меломан
Досье
 
Аватар для Zarohoff
По умолчанию Re: Space Buddha - No Shields

Спасибо!

Вверх
Похожие темы
Тема Автор Раздел Ответов Последнее сообщение
Альбом Space Buddha - Storm Reaction TAIFUN GOA 18 19.09.2018 14:43
Альбом Space Buddha - Stigmata TAIFUN GOA 1 15.09.2018 19:00
Альбом Space Buddha - Full Circle TAIFUN GOA 1 15.09.2018 18:59
Альбом Space Buddha - Eternity Project TAIFUN GOA 0 30.05.2014 04:51
Альбом Space Buddha - Space Buddha TAIFUN GOA 0 30.05.2014 04:32


Метки
2008 , goa trance , no shields , space buddha

Опции темы

Ваши права в разделе
Вы не можете создавать новые темы
Вы не можете отвечать в темах
Вы не можете прикреплять вложения
Вы не можете редактировать свои сообщения

Быстрый переход



Текущее время: 03:25. Часовой пояс GMT +3.
Powered by vBulletin® Version 3.8.10
Copyright ©2000 - 2018, vBulletin Solutions, Inc. Перевод: zCarot
© 2008 - 2018 Taifun With Song
Яндекс.Метрика