TAIFUN With Song
Навигация
Вернуться   TAIFUN With Song > Music (обменник) > Rock > Blues Rock
Расширенный поиск
Blues Rock К концу сороковых годов прошлого столетия в блюзе окончательно обосновалась электрогитара. Трудно сказать, что подтолкнуло многих блюзменов перейти с привычной акустической гитары на электрическую, но блюз с тех пор очень сильно изменился.

А знаете ли Вы, что...
Каким образом проводятся бесшумные дискотеки?
«С 2000 года всё большую популярность набирают бесшумные дискотеки — особенно там, где после определённого часа действуют запреты на громкую музыку. Каждому их участнику выдаются специальные наушники, на которые транслируется аудиосигнал по беспроводной связи, то есть наблюдатель со стороны увидит только толпу танцующих в тишине людей. Часто в таком формате на одной площадке работают сразу несколько диджеев или исполняющих живую музыку групп, конкурирующих за внимание публики, наушники которой снабжены функцией переключения сигналов.»
 
Опции темы

  #1
Старый 15.04.2014, 19:31
sergych
Координатор
Досье
 
Аватар для sergych
Релиз Joe Cocker - Joe Cocker's Greatest Hits


1977(1987) - Joe Cocker - Joe Cocker's Greatest Hits




Исполнитель/Artist: Joe Cocker
Альбом/Album: Joe Cocker's Greatest Hits
Год/Year: 1977
Ремастеринг/Remaster: 1987
Жанр/Genre: Blues rock, rock
Страна/Country: Соединённые Штаты
Рекорд-лейбл/Record label: A&M Records
Номер в каталоге/Catalogue #: CD 3257
Формат/Format: Free Lossless Audio Codec (*.flac)
Качество/Quality: Lossless
Тип рипа/RIP Type: image+.cue
Продолжительность/Length: 00:49:37
Источник/Source: Собственный рип
Размер/Size: 301.8 MB

Сканы в комплекте

Треклист

01. With A Little Help From My Friends [0:05:05.10]
02. Woman To Woman [0:04:31.30]
03. The Jealous Kind [0:03:51.33]
04. Black-Eyed Blues [0:04:38.40]
05. I Think It's Going To Rain [0:04:02.02]
06. Cry Me A River [0:04:07.30]
07. You Are So Beautiful [0:02:43.38]
08. Feeling Alright [0:04:13.17]
09. Delta Lady [0:02:52.40]
10. Darling Be Home Soon [0:04:44.68]
11. High Time We Went [0:04:29.27]
12. The Letter [0:04:17.55]
[свернуть]

youtube.com

[свернуть]

EAC лог

Exact Audio Copy V1.0 beta 3 from 29. August 2011

EAC extraction logfile from 15. April 2014, 20:39

Joe Cocker / Joe Cocker's Greatest Hits

Used drive : ATAPI iHAS124 D Adapter: 0 ID: 2

Read mode : Secure
Utilize accurate stream : Yes
Defeat audio cache : Yes
Make use of C2 pointers : No

Read offset correction : 6
Overread into Lead-In and Lead-Out : No
Fill up missing offset samples with silence : Yes
Delete leading and trailing silent blocks : No
Null samples used in CRC calculations : Yes
Used interface : Installed external ASPI interface

Used output format : User Defined Encoder
Selected bitrate : 1024 kBit/s
Quality : High
Add ID3 tag : No
Command line compressor : C:\Program Files (x86)\Exact Audio Copy\Flac\flac.exe
Additional command line options : -6 -V -T "ARTIST=%artist%" -T "TITLE=%title%" -T "ALBUM=%albumtitle%" -T "DATE=%year%" -T "TRACKNUMBER=%tracknr%" -T "GENRE=%genre%" -T "COMMENT=%comment%" -T "BAND=%albuminterpret%" -T "COMPOSER=%composer%" %haslyrics%--tag-from-file=LYRICS="%lyricsfile%"%haslyrics% -T "DISCNUMBER=%cdnumber%" -T "TOTALDISCS=%totalcds%" -T "TOTALTRACKS=%numtracks%" %hascover%--picture="%coverfile%"%hascover% %source% -o %dest%


TOC of the extracted CD

Track | Start | Length | Start sector | End sector
---------------------------------------------------------
1 | 0:00.00 | 5:05.10 | 0 | 22884
2 | 5:05.10 | 4:31.30 | 22885 | 43239
3 | 9:36.40 | 3:51.33 | 43240 | 60597
4 | 13:27.73 | 4:38.40 | 60598 | 81487
5 | 18:06.38 | 4:02.02 | 81488 | 99639
6 | 22:08.40 | 4:07.30 | 99640 | 118194
7 | 26:15.70 | 2:43.38 | 118195 | 130457
8 | 28:59.33 | 4:13.17 | 130458 | 149449
9 | 33:12.50 | 2:52.40 | 149450 | 162389
10 | 36:05.15 | 4:44.68 | 162390 | 183757
11 | 40:50.08 | 4:29.27 | 183758 | 203959
12 | 45:19.35 | 4:17.55 | 203960 | 223289


Range status and errors

Selected range

Filename C:\mm\Joe Cocker\1977(1987) - Joe Cocker's Greatest Hits [CD 3257]\Joe Cocker - Joe Cocker's Greatest Hits.wav

Peak level 95.0 %
Extraction speed 9.3 X
Range quality 100.0 %
Test CRC 07561210
Copy CRC 07561210
Copy OK

No errors occurred


AccurateRip summary

Track 1 accurately ripped (confidence 9) [B3047CE7] (AR v2)
Track 2 accurately ripped (confidence 8) [901598D4] (AR v2)
Track 3 accurately ripped (confidence 9) [2437F5B0] (AR v2)
Track 4 accurately ripped (confidence 9) [A868AD5B] (AR v2)
Track 5 accurately ripped (confidence 9) [51A4FA85] (AR v2)
Track 6 accurately ripped (confidence 8) [AF44C93F] (AR v2)
Track 7 accurately ripped (confidence 9) [602C5C43] (AR v2)
Track 8 accurately ripped (confidence 9) [CD99E4BF] (AR v2)
Track 9 accurately ripped (confidence 9) [DECB73C1] (AR v2)
Track 10 accurately ripped (confidence 9) [C7AA1C82] (AR v2)
Track 11 accurately ripped (confidence 8) [6D517D66] (AR v2)
Track 12 accurately ripped (confidence 9) [D53FF5B3] (AR v2)

All tracks accurately ripped

End of status report
[свернуть]

Файл CUE

REM GENRE Rock
REM DATE 1977
REM DISCID AA0BA10C
REM COMMENT "ExactAudioCopy v1.0b3"
PERFORMER "Joe Cocker"
TITLE "Joe Cocker's Greatest Hits"
FILE "Joe Cocker - Joe Cocker's Greatest Hits.flac" WAVE
TRACK 01 AUDIO
TITLE "With A Little Help From My Friends"
PERFORMER "Joe Cocker"
INDEX 01 00:00:00
TRACK 02 AUDIO
TITLE "Woman To Woman"
PERFORMER "Joe Cocker"
INDEX 00 05:02:63
INDEX 01 05:05:10
TRACK 03 AUDIO
TITLE "The Jealous Kind"
PERFORMER "Joe Cocker"
INDEX 00 09:34:28
INDEX 01 09:36:40
TRACK 04 AUDIO
TITLE "Black-Eyed Blues"
PERFORMER "Joe Cocker"
INDEX 00 13:24:70
INDEX 01 13:27:73
TRACK 05 AUDIO
TITLE "I Think It's Going To Rain"
PERFORMER "Joe Cocker"
INDEX 00 18:03:45
INDEX 01 18:06:38
TRACK 06 AUDIO
TITLE "Cry Me A River"
PERFORMER "Joe Cocker"
INDEX 00 22:05:53
INDEX 01 22:08:40
TRACK 07 AUDIO
TITLE "You Are So Beautiful"
PERFORMER "Joe Cocker"
INDEX 00 26:12:68
INDEX 01 26:15:70
TRACK 08 AUDIO
TITLE "Feeling Alright"
PERFORMER "Joe Cocker"
INDEX 00 28:56:68
INDEX 01 28:59:33
TRACK 09 AUDIO
TITLE "Delta Lady"
PERFORMER "Joe Cocker"
INDEX 00 33:11:15
INDEX 01 33:12:50
TRACK 10 AUDIO
TITLE "Darling Be Home Soon"
PERFORMER "Joe Cocker"
INDEX 00 36:03:00
INDEX 01 36:05:15
TRACK 11 AUDIO
TITLE "High Time We Went"
PERFORMER "Joe Cocker"
INDEX 00 40:47:40
INDEX 01 40:50:08
TRACK 12 AUDIO
TITLE "The Letter"
PERFORMER "Joe Cocker"
INDEX 00 45:18:25
INDEX 01 45:19:35
[свернуть]

Лог проверки качества

AUDIOCHECKER v2.0 beta (build 457) - by Dester -
~~~~~~~~~~~~~~~~~~~~~~~~~~~~~~~~~~
-=== НЕ РЕДАКТИРУЙТЕ ЭТОТ ФАЙЛ! ===-

Путь: ...\1977(1987) - Joe Cocker's Greatest Hits [CD 3257]

1 -=- Joe Cocker - Joe Cocker's Greatest Hits.flac -=- CDDA (99%)

64996772
[свернуть]

Спектр частот

[свернуть]

Скачать Joe Cocker - Joe Cocker's Greatest Hits



password: sergych
[свернуть]
My opinion of release: 10/10
__________________
TAIFUN.Wings of Soul

Вверх
4 пользователя(ей) сказали cпасибо:
Показать список поблагодаривших
Похожие темы
Тема Автор Раздел Ответов Последнее сообщение
Альбом Joe Cocker - Organic sergych Blues Rock 0 20.02.2014 20:34
Альбом Joe Cocker - Cocker sergych Blues Rock 0 20.02.2014 20:05
Сборник Joe Cocker - Greatest Hits aheron Blues Rock 0 20.05.2013 19:21
Сборник Joe Cocker - The Best Of Joe PUPOKIN Blues Rock 0 30.12.2008 11:14


Метки
1977 , blues rock , joe cocker , joe cocker's greatest hits , rock

Опции темы

Ваши права в разделе
Вы не можете создавать новые темы
Вы не можете отвечать в темах
Вы не можете прикреплять вложения
Вы не можете редактировать свои сообщения

Быстрый переход



Текущее время: 00:29. Часовой пояс GMT +3.
Powered by vBulletin® Version 3.8.10
Copyright ©2000 - 2018, vBulletin Solutions, Inc. Перевод: zCarot
© 2008 - 2018 Taifun With Song
Яндекс.Метрика