TAIFUN With Song
Навигация
Вернуться   TAIFUN With Song > Music (обменник) > Rock > Blues Rock
Расширенный поиск
Blues Rock К концу сороковых годов прошлого столетия в блюзе окончательно обосновалась электрогитара. Трудно сказать, что подтолкнуло многих блюзменов перейти с привычной акустической гитары на электрическую, но блюз с тех пор очень сильно изменился.

А знаете ли Вы, что...
Для прослушивания какого альбома нужно иметь четыре аудиосистемы?
«Восьмой студийный альбом альтернативной группы The Flaming Lips под названием Zaireeka был выпущен на 4 CD. Особенность альбома в том, что каждая композиция разделена на четыре составляющих, и для того чтобы прослушать песни в полной версии, нужно включить одновременно все диски на четырёх разных аудиосистемах. Слушатели также могут экспериментировать, проигрывая не все диски сразу, а в любой комбинации из двух или трёх штук.»
 
Опции темы

  #1
Старый 06.11.2013, 18:53
sergych
Координатор
Досье
 
Аватар для sergych
Релиз Chris Rea - Stony Road


2002(2003) - Chris Rea - Stony Road




Исполнитель/Artist: Chris Rea
Альбом/Album: Stony Road
Год/Year: 2002
Ремастеринг/Remaster: 2003
Жанр/Genre: blues, Blues rock, Gospel Blues
Страна/Country: Россия
Рекорд-лейбл/Record label: Edel / Танцевальный рай
Номер в каталоге/Catalogue #: LP-178 / 0141922ERE
Формат/Format: Free Lossless Audio Codec (*.flac)
Качество/Quality: Lossless
Тип рипа/RIP Type: tracks+.cue
Продолжительность/Length: 00:57:14
Источник/Source: Собственный рип
Размер/Size: 433.7 MB

Сканы в комплекте

Треклист

01 - Changing Times
02 - Easy Rider
03 - Stony Road
04 - Dancing the Blues Away
05 - Burning Feet
06 - Mississippi
07 - Slow Dance
08 - When the Good Lord Talked to Jesus
09 - Heading for the City
10 - So Lonely
11 - Someday My Peace Will Come
12 - The Hustler
13 - Give That Girl a Diamond
[свернуть]

youtube.com

[свернуть]

Исполнители/Performers

Chris Rea - vocals, guitars, producer, paintings
Robert Ahwai - guitar
Sylvin Marc - bass
Ed Hession - accordion
Gerry O'Connor - banjo
Martin Ditcham - drums
[свернуть]

EAC лог

Exact Audio Copy V1.0 beta 3 from 29. August 2011

EAC extraction logfile from 6. November 2013, 20:59

Chris Rea / Stony Road

Used drive : ATAPI iHAS124 D Adapter: 0 ID: 2

Read mode : Secure
Utilize accurate stream : Yes
Defeat audio cache : Yes
Make use of C2 pointers : No

Read offset correction : 6
Overread into Lead-In and Lead-Out : No
Fill up missing offset samples with silence : Yes
Delete leading and trailing silent blocks : No
Null samples used in CRC calculations : Yes
Used interface : Installed external ASPI interface
Gap handling : Appended to previous track

Used output format : User Defined Encoder
Selected bitrate : 1024 kBit/s
Quality : High
Add ID3 tag : No
Command line compressor : C:\Program Files (x86)\Exact Audio Copy\Flac\flac.exe
Additional command line options : -6 -V -T "ARTIST=%artist%" -T "TITLE=%title%" -T "ALBUM=%albumtitle%" -T "DATE=%year%" -T "TRACKNUMBER=%tracknr%" -T "GENRE=%genre%" -T "COMMENT=%comment%" -T "BAND=%albuminterpret%" -T "COMPOSER=%composer%" %haslyrics%--tag-from-file=LYRICS="%lyricsfile%"%haslyrics% -T "DISCNUMBER=%cdnumber%" -T "TOTALDISCS=%totalcds%" -T "TOTALTRACKS=%numtracks%" %hascover%--picture="%coverfile%"%hascover% %source% -o %dest%


TOC of the extracted CD

Track | Start | Length | Start sector | End sector
---------------------------------------------------------
1 | 0:00.00 | 3:05.17 | 0 | 13891
2 | 3:05.17 | 4:50.33 | 13892 | 35674
3 | 7:55.50 | 5:30.19 | 35675 | 60443
4 | 13:25.69 | 4:38.29 | 60444 | 81322
5 | 18:04.23 | 5:01.30 | 81323 | 103927
6 | 23:05.53 | 4:40.71 | 103928 | 124998
7 | 27:46.49 | 4:11.64 | 124999 | 143887
8 | 31:58.38 | 4:16.01 | 143888 | 163088
9 | 36:14.39 | 6:08.14 | 163089 | 190702
10 | 42:22.53 | 3:19.46 | 190703 | 205673
11 | 45:42.24 | 3:51.44 | 205674 | 223042
12 | 49:33.68 | 4:14.10 | 223043 | 242102
13 | 53:48.03 | 3:54.10 | 242103 | 259662


Track 1

Filename C:\mm\Chris Rea\2002 - Stony Road [0141922ERE]\01 - Changing Times.wav

Pre-gap length 0:00:02.00

Peak level 95.0 %
Extraction speed 1.2 X
Track quality 99.9 %
Test CRC 2F75ACD8
Copy CRC 2F75ACD8
Cannot be verified as accurate (confidence 2) [0643E77C], AccurateRip returned [6243DDE4] (AR v2)
Copy OK

Track 2

Filename C:\mm\Chris Rea\2002 - Stony Road [0141922ERE]\02 - Easy Rider.wav

Pre-gap length 0:00:02.07

Peak level 98.4 %
Extraction speed 2.1 X
Track quality 100.0 %
Test CRC 8751FFB9
Copy CRC 8751FFB9
Cannot be verified as accurate (confidence 2) [E1764EFA], AccurateRip returned [65E2125B] (AR v2)
Copy OK

Track 3

Filename C:\mm\Chris Rea\2002 - Stony Road [0141922ERE]\03 - Stony Road.wav

Pre-gap length 0:00:01.58

Peak level 98.4 %
Extraction speed 2.4 X
Track quality 100.0 %
Test CRC 98496E4D
Copy CRC 98496E4D
Cannot be verified as accurate (confidence 2) [AF66747D], AccurateRip returned [F8160D53] (AR v2)
Copy OK

Track 4

Filename C:\mm\Chris Rea\2002 - Stony Road [0141922ERE]\04 - Dancing the Blues Away.wav

Pre-gap length 0:00:00.53

Peak level 98.4 %
Extraction speed 2.6 X
Track quality 100.0 %
Test CRC BE68B42E
Copy CRC BE68B42E
Cannot be verified as accurate (confidence 2) [4DFB4852], AccurateRip returned [9DCC5CAC] (AR v2)
Copy OK

Track 5

Filename C:\mm\Chris Rea\2002 - Stony Road [0141922ERE]\05 - Burning Feet.wav

Pre-gap length 0:00:00.68

Peak level 98.4 %
Extraction speed 2.8 X
Track quality 100.0 %
Test CRC 086F37D0
Copy CRC 086F37D0
Cannot be verified as accurate (confidence 2) [4A89A5D9], AccurateRip returned [E4106653] (AR v2)
Copy OK

Track 6

Filename C:\mm\Chris Rea\2002 - Stony Road [0141922ERE]\06 - Mississippi.wav

Pre-gap length 0:00:02.71

Peak level 98.4 %
Extraction speed 2.9 X
Track quality 100.0 %
Test CRC D107FF22
Copy CRC D107FF22
Cannot be verified as accurate (confidence 2) [EB08E2B6], AccurateRip returned [52F08858] (AR v2)
Copy OK

Track 7

Filename C:\mm\Chris Rea\2002 - Stony Road [0141922ERE]\07 - Slow Dance.wav

Pre-gap length 0:00:02.03

Peak level 98.4 %
Extraction speed 3.1 X
Track quality 100.0 %
Test CRC 506AE7F1
Copy CRC 506AE7F1
Cannot be verified as accurate (confidence 2) [3972FE63], AccurateRip returned [06925E59] (AR v2)
Copy OK

Track 8

Filename C:\mm\Chris Rea\2002 - Stony Road [0141922ERE]\08 - When the Good Lord Talked to Jesus.wav

Pre-gap length 0:00:02.09

Peak level 97.9 %
Extraction speed 3.2 X
Track quality 100.0 %
Test CRC 8AD6BAC2
Copy CRC 8AD6BAC2
Cannot be verified as accurate (confidence 2) [DFEA5375], AccurateRip returned [9C03EE7C] (AR v2)
Copy OK

Track 9

Filename C:\mm\Chris Rea\2002 - Stony Road [0141922ERE]\09 - Heading for the City.wav

Pre-gap length 0:00:01.14

Peak level 98.4 %
Extraction speed 2.8 X
Track quality 99.9 %
Test CRC 3762821D
Copy CRC 3762821D
Cannot be verified as accurate (confidence 2) [2B517739], AccurateRip returned [FE247833] (AR v2)
Copy OK

Track 10

Filename C:\mm\Chris Rea\2002 - Stony Road [0141922ERE]\10 - So Lonely.wav

Pre-gap length 0:00:02.07

Peak level 98.4 %
Extraction speed 3.4 X
Track quality 100.0 %
Test CRC 279CEBEC
Copy CRC 279CEBEC
Cannot be verified as accurate (confidence 2) [C1C00CCD], AccurateRip returned [65EBDF9D] (AR v2)
Copy OK

Track 11

Filename C:\mm\Chris Rea\2002 - Stony Road [0141922ERE]\11 - Someday My Peace Will Come.wav

Pre-gap length 0:00:04.20

Peak level 97.7 %
Extraction speed 3.6 X
Track quality 100.0 %
Test CRC 870EE8A6
Copy CRC 870EE8A6
Cannot be verified as accurate (confidence 2) [D8BEB410], AccurateRip returned [EE069F9E] (AR v2)
Copy OK

Track 12

Filename C:\mm\Chris Rea\2002 - Stony Road [0141922ERE]\12 - The Hustler.wav

Pre-gap length 0:00:03.70

Peak level 98.4 %
Extraction speed 3.7 X
Track quality 100.0 %
Test CRC F0D3B86B
Copy CRC F0D3B86B
Cannot be verified as accurate (confidence 2) [78303838], AccurateRip returned [E592F5C9] (AR v2)
Copy OK

Track 13

Filename C:\mm\Chris Rea\2002 - Stony Road [0141922ERE]\13 - Give That Girl a Diamond.wav

Pre-gap length 0:00:03.68

Peak level 97.5 %
Extraction speed 3.8 X
Track quality 100.0 %
Test CRC D851AA3A
Copy CRC D851AA3A
Cannot be verified as accurate (confidence 2) [72DD7DFC], AccurateRip returned [63DF72B3] (AR v2)
Copy OK


No tracks could be verified as accurate
You may have a different pressing from the one(s) in the database

No errors occurred

End of status report
[свернуть]

Файл CUE

REM GENRE Blues
REM DATE 2002
REM DISCID C50D860D
REM COMMENT "ExactAudioCopy v1.0b3"
PERFORMER "Chris Rea"
TITLE "Stony Road"
FILE "01 - Changing Times.wav" WAVE
TRACK 01 AUDIO
TITLE "Changing Times"
PERFORMER "Chris Rea"
INDEX 01 00:00:00
TRACK 02 AUDIO
TITLE "Easy Rider"
PERFORMER "Chris Rea"
INDEX 00 03:03:10
FILE "02 - Easy Rider.wav" WAVE
INDEX 01 00:00:00
TRACK 03 AUDIO
TITLE "Stony Road"
PERFORMER "Chris Rea"
INDEX 00 04:48:50
FILE "03 - Stony Road.wav" WAVE
INDEX 01 00:00:00
TRACK 04 AUDIO
TITLE "Dancing the Blues Away"
PERFORMER "Chris Rea"
INDEX 00 05:29:41
FILE "04 - Dancing the Blues Away.wav" WAVE
INDEX 01 00:00:00
TRACK 05 AUDIO
TITLE "Burning Feet"
PERFORMER "Chris Rea"
INDEX 00 04:37:36
FILE "05 - Burning Feet.wav" WAVE
INDEX 01 00:00:00
TRACK 06 AUDIO
TITLE "Mississippi"
PERFORMER "Chris Rea"
INDEX 00 04:58:34
FILE "06 - Mississippi.wav" WAVE
INDEX 01 00:00:00
TRACK 07 AUDIO
TITLE "Slow Dance"
PERFORMER "Chris Rea"
INDEX 00 04:38:68
FILE "07 - Slow Dance.wav" WAVE
INDEX 01 00:00:00
TRACK 08 AUDIO
TITLE "When the Good Lord Talked to Jesus"
PERFORMER "Chris Rea"
INDEX 00 04:09:55
FILE "08 - When the Good Lord Talked to Jesus.wav" WAVE
INDEX 01 00:00:00
TRACK 09 AUDIO
TITLE "Heading for the City"
PERFORMER "Chris Rea"
INDEX 00 04:14:62
FILE "09 - Heading for the City.wav" WAVE
INDEX 01 00:00:00
TRACK 10 AUDIO
TITLE "So Lonely"
PERFORMER "Chris Rea"
INDEX 00 06:06:07
FILE "10 - So Lonely.wav" WAVE
INDEX 01 00:00:00
TRACK 11 AUDIO
TITLE "Someday My Peace Will Come"
PERFORMER "Chris Rea"
INDEX 00 03:15:26
FILE "11 - Someday My Peace Will Come.wav" WAVE
INDEX 01 00:00:00
TRACK 12 AUDIO
TITLE "The Hustler"
PERFORMER "Chris Rea"
INDEX 00 03:47:49
FILE "12 - The Hustler.wav" WAVE
INDEX 01 00:00:00
TRACK 13 AUDIO
TITLE "Give That Girl a Diamond"
PERFORMER "Chris Rea"
INDEX 00 04:10:17
FILE "13 - Give That Girl a Diamond.wav" WAVE
INDEX 01 00:00:00
[свернуть]

Лог проверки качества

AUDIOCHECKER v2.0 beta (build 457) - by Dester -
~~~~~~~~~~~~~~~~~~~~~~~~~~~~~~~~~~
-=== НЕ РЕДАКТИРУЙТЕ ЭТОТ ФАЙЛ! ===-

Путь: ...\2002 - Stony Road [0141922ERE]

01 -=- 01 - Changing Times.flac -=- CDDA (100%)
02 -=- 02 - Easy Rider.flac -=- CDDA (100%)
03 -=- 03 - Stony Road.flac -=- CDDA (100%)
04 -=- 04 - Dancing the Blues Away.flac -=- CDDA (100%)
05 -=- 05 - Burning Feet.flac -=- CDDA (100%)
06 -=- 06 - Mississippi.flac -=- CDDA (100%)
07 -=- 07 - Slow Dance.flac -=- CDDA (100%)
08 -=- 08 - When the Good Lord Talked to Jesus.flac -=- CDDA (99%)
09 -=- 09 - Heading for the City.flac -=- CDDA (100%)
10 -=- 10 - So Lonely.flac -=- CDDA (100%)
11 -=- 11 - Someday My Peace Will Come.flac -=- CDDA (100%)
12 -=- 12 - The Hustler.flac -=- CDDA (100%)
13 -=- 13 - Give That Girl a Diamond.flac -=- CDDA (100%)

Сводка 99,92% CDDA

179782228
[свернуть]

Скачать Chris Rea - Stony Road



password: sergych
[свернуть]
My opinion of release: 10/10
__________________
TAIFUN.Wings of Soul

Вверх
Пользователь сказал cпасибо:
Bumbum (13.12.2014)
Похожие темы
Тема Автор Раздел Ответов Последнее сообщение
Альбом Camel - On The Road sergych Progressive Rock 1 12.10.2013 08:52
Релиз The Road To Consciousness Project – Road To Consciousness PUPOKIN Gothic Metal 0 02.02.2011 11:18
Альбом Chris de Burgh - The Road To Freedom sergych Soft Rock 0 08.06.2008 00:32


Метки
2002 , blues , blues rock , chris rea , gospel blues , stony road

Опции темы

Ваши права в разделе
Вы не можете создавать новые темы
Вы не можете отвечать в темах
Вы не можете прикреплять вложения
Вы не можете редактировать свои сообщения

Быстрый переход



Текущее время: 00:30. Часовой пояс GMT +3.
Powered by vBulletin® Version 3.8.10
Copyright ©2000 - 2018, vBulletin Solutions, Inc. Перевод: zCarot
© 2008 - 2018 Taifun With Song
Яндекс.Метрика