TAIFUN With Song
Навигация
Вернуться   TAIFUN With Song > Music (обменник) > Rock > Pop Rock
Расширенный поиск
Pop Rock Поп-рок — жанр музыки, объединяющий элементы поп-музыки и рок-музыки. Песни характеризуются простой структурой, запоминающимися мелодиями, повторением музыкальных фраз (от попа), использованием в качестве основных инструментов электрогитар и ударных и агрессивным настроением (от рока).

А знаете ли Вы, что...
Кто начал писать музыку в 5 лет?
«Вольфганг Амадей Моцарт начал сочинять музыку в 5 лет.»
 
Опции темы

  #1
Старый 17.05.2013, 08:21
aheron
Релизёр
Досье
 
Аватар для aheron
По умолчанию Alison Moyet - Hometime


Alison Moyet - Hometime (2002)





Исполнитель/Artist: Alison Moyet
Альбом/Album: Hometime
Год/Year: 2002
Жанр/Genre: Pop/Rock
Рекорд-лейбл/Record label: Motley Music Ltd./Sanctuary Records Group Ltd. Made United Kingdom.
Каталог/Catalog #: SANCD128
Формат/Format: Free Lossless Audio Codec (*.flac)
Качество/Quality: Lossless
Тип рипа/RIP Type: image+.cue


Продолжительность/Length: 00:45:21
Источник/Source: Из интернета
Размер/Size: 594 MB

Сканы в комплекте

Треклист

Alison Moyet - Hometime (11 / 45:21)
--------------------------------------------------
01. Alison Moyet - Yesterday's Flame [04:28]
02. Alison Moyet - Should I Feel That It's Over [04:01]
03. Alison Moyet - More [03:59]
04. Alison Moyet - Hometime [03:47]
05. Alison Moyet - Mary, Don.t Keep Me Waiting [03:38]
06. Alison Moyet - Say It [04:00]
07. Alison Moyet - Ski [04:22]
08. Alison Moyet - If You Don't Come Back To Me [04:30]
09. Alison Moyet - Do You Ever Wonder [03:10]
10. Alison Moyet - The Train I Ride [05:03]
11. Alison Moyet - You Don't Have To Go [04:17]
[свернуть]

EAC лог

Exact Audio Copy V1.0 beta 3 from 29. August 2011

EAC extraction logfile from 3. April 2013, 1:45

Alison Moyet / Hometime

Used drive : Optiarc BD RW BD-5300S Adapter: 3 ID: 0

Read mode : Secure
Utilize accurate stream : Yes
Defeat audio cache : Yes
Make use of C2 pointers : No

Read offset correction : 6
Overread into Lead-In and Lead-Out : No
Fill up missing offset samples with silence : Yes
Delete leading and trailing silent blocks : No
Null samples used in CRC calculations : Yes
Used interface : Installed external ASPI interface

Used output format : User Defined Encoder
Selected bitrate : 1024 kBit/s
Quality : High
Add ID3 tag : No
Command line compressor : C:\Program Files (x86)\Exact Audio Copy\Flac\flac.exe
Additional command line options : -8 -V -T "Date=%year%" -T "Genre=%genre%" -T "COMMENT=ripped by bvstudio®" %source%

TOC of the extracted CD

Track | Start | Length | Start sector | End sector
---------------------------------------------------------
1 | 0:00.00 | 4:28.26 | 0 | 20125
2 | 4:28.26 | 4:01.44 | 20126 | 38244
3 | 8:29.70 | 3:59.68 | 38245 | 56237
4 | 12:29.63 | 3:47.41 | 56238 | 73303
5 | 16:17.29 | 3:38.66 | 73304 | 89719
6 | 19:56.20 | 4:00.66 | 89720 | 107785
7 | 23:57.11 | 4:22.43 | 107786 | 127478
8 | 28:19.54 | 4:30.07 | 127479 | 147735
9 | 32:49.61 | 3:10.34 | 147736 | 162019
10 | 36:00.20 | 5:03.50 | 162020 | 184794
11 | 41:03.70 | 4:17.13 | 184795 | 204082

Range status and errors

Selected range

Filename F:\Alison Moyet\2002 - Hometime\Alison Moyet - Hometime.wav

Peak level 100.0 %
Extraction speed 6.6 X
Range quality 99.9 %
Test CRC B5088748
Copy CRC B5088748
Copy OK

No errors occurred

AccurateRip summary

Track 1 accurately ripped (confidence 2) [E98C8CE3] (AR v2)
Track 2 accurately ripped (confidence 2) [AFDE641D] (AR v2)
Track 3 accurately ripped (confidence 2) [94CF3E05] (AR v2)
Track 4 accurately ripped (confidence 2) [4A3A032F] (AR v2)
Track 5 accurately ripped (confidence 2) [4109DEB1] (AR v2)
Track 6 accurately ripped (confidence 2) [1AA6BF1E] (AR v2)
Track 7 accurately ripped (confidence 2) [1EE004A6] (AR v2)
Track 8 accurately ripped (confidence 2) [85645042] (AR v2)
Track 9 accurately ripped (confidence 2) [284555BB] (AR v2)
Track 10 accurately ripped (confidence 2) [33BB7CE1] (AR v2)
Track 11 accurately ripped (confidence 2) [334A194D] (AR v2)

All tracks accurately ripped

End of status report

---- CUETools DB Plugin V2.1.4

[CTDB TOCID: twQN4kbDKgrMe6MuhUUbvjAEFVc-] found
Submit result: twQN4kbDKgrMe6MuhUUbvjAEFVc- has been confirmed
Track | CTDB Status
1 | (4/4) Accurately ripped
2 | (4/4) Accurately ripped
3 | (4/4) Accurately ripped
4 | (4/4) Accurately ripped
5 | (4/4) Accurately ripped
6 | (4/4) Accurately ripped
7 | (4/4) Accurately ripped
8 | (4/4) Accurately ripped
9 | (4/4) Accurately ripped
10 | (4/4) Accurately ripped
11 | (4/4) Accurately ripped

==== Log checksum 1D92558959FAFCFEB7F38E331F07169B96B7606114941389C0 CED7081C3D1297 ====
[свернуть]

Лог проверки качества

AUDIOCHECKER v2.0 beta (build 457) - by Dester -
~~~~~~~~~~~~~~~~~~~~~~~~~~~~~~~~~~
-=== НЕ РЕДАКТИРУЙТЕ ЭТОТ ФАЙЛ! ===-

Путь: ...\Alison Moyet - Hometime (2002)

1 -=- Alison Moyet - Hometime.flac -=- CDDA (99%)

137666660
[свернуть]

Спектр частот



[свернуть]

Скачать Alison Moyet - Hometime

Яндекс.Диск
[свернуть]

Вверх
Пользователь сказал cпасибо:
sergych (17.05.2013)
Похожие темы
Тема Автор Раздел Ответов Последнее сообщение
Альбом Alison Moyet - Essex aheron Pop Rock 0 17.05.2013 08:13
Альбом Alison Moyet - Hoodoo aheron Pop Rock 0 17.05.2013 06:03
Alison Marks - Yellow Cherry DarkDan Techno 0 25.05.2008 11:01


Метки
2002 , alison moyet , hometime , pop/rock

Опции темы

Ваши права в разделе
Вы не можете создавать новые темы
Вы не можете отвечать в темах
Вы не можете прикреплять вложения
Вы не можете редактировать свои сообщения

Быстрый переход



Текущее время: 00:31. Часовой пояс GMT +3.
Powered by vBulletin® Version 3.8.10
Copyright ©2000 - 2018, vBulletin Solutions, Inc. Перевод: zCarot
© 2008 - 2018 Taifun With Song
Яндекс.Метрика