TAIFUN With Song
Навигация
Вернуться   TAIFUN With Song > Music (обменник) > Rock > Pop Rock
Расширенный поиск
Pop Rock Поп-рок — жанр музыки, объединяющий элементы поп-музыки и рок-музыки. Песни характеризуются простой структурой, запоминающимися мелодиями, повторением музыкальных фраз (от попа), использованием в качестве основных инструментов электрогитар и ударных и агрессивным настроением (от рока).

А знаете ли Вы, что...
Музыка какой рок-группы привлекает акул?
«Австралиец Мэтт Уоллер занимается организацией подводных туров для любителей посмотреть на акул. Традиционно для приманки хищников он использовал рыбу, однако недавно случайно обнаружил, что акул привлекает музыка рок-группы AC/DC. Предположительно, акулы реагируют на вибрацию низких частот, так как у них нет ушей. Сейчас компания Уоллера — единственный туроператор в мире, использующий музыку для приманки, однако он полагает, что конкуренты вскоре последуют его примеру.»
 
Опции темы

  #1
Старый 17.05.2013, 08:13
aheron
Релизёр
Досье
 
Аватар для aheron
По умолчанию Alison Moyet - Essex


Alison Moyet - Essex (1994)





Исполнитель/Artist: Alison Moyet
Альбом/Album: Essex
Год/Year: 1994
Жанр/Genre: Pop/Rock
Рекорд-лейбл/Record label: Sony Music Entertainment (UK) Ltd/Columbia™/Columbia House. Made in Canada.
Каталог/Catalog #: CCK 57448
Формат/Format: Free Lossless Audio Codec (*.flac)
Качество/Quality: Lossless
Тип рипа/RIP Type: image+.cue
Продолжительность/Length: 00:48:26
Источник/Source: Из интернета
Размер/Size: 469 MB

Сканы в комплекте

Треклист

Exact Audio Copy V1.0 beta 3 from 29. August 2011

EAC extraction logfile from 3. April 2013, 1:02

Alison Moyet / Essex

Used drive : Optiarc BD RW BD-5300S Adapter: 3 ID: 0

Read mode : Secure
Utilize accurate stream : Yes
Defeat audio cache : Yes
Make use of C2 pointers : No

Read offset correction : 6
Overread into Lead-In and Lead-Out : No
Fill up missing offset samples with silence : Yes
Delete leading and trailing silent blocks : No
Null samples used in CRC calculations : Yes
Used interface : Installed external ASPI interface

Used output format : User Defined Encoder
Selected bitrate : 1024 kBit/s
Quality : High
Add ID3 tag : No
Command line compressor : C:\Program Files (x86)\Exact Audio Copy\Flac\flac.exe
Additional command line options : -8 -V -T "Date=%year%" -T "Genre=%genre%" -T "COMMENT=ripped by bvstudio®" %source%

TOC of the extracted CD

Track | Start | Length | Start sector | End sector
---------------------------------------------------------
1 | 0:00.00 | 3:40.15 | 0 | 16514
2 | 3:40.15 | 3:49.67 | 16515 | 33756
3 | 7:30.07 | 3:28.63 | 33757 | 49419
4 | 10:58.70 | 4:16.52 | 49420 | 68671
5 | 15:15.47 | 3:46.18 | 68672 | 85639
6 | 19:01.65 | 4:17.22 | 85640 | 104936
7 | 23:19.12 | 2:53.30 | 104937 | 117941
8 | 26:12.42 | 3:26.70 | 117942 | 133461
9 | 29:39.37 | 3:45.43 | 133462 | 150379
10 | 33:25.05 | 4:05.55 | 150380 | 168809
11 | 37:30.60 | 4:09.70 | 168810 | 187554
12 | 41:40.55 | 2:57.70 | 187555 | 200899
13 | 44:38.50 | 3:47.55 | 200900 | 217979

Range status and errors

Selected range

Filename F:\Alison Moyet\1994 - Essex\Alison Moyet - Essex.wav

Peak level 93.3 %
Extraction speed 7.1 X
Range quality 100.0 %
Test CRC 0007CA7C
Copy CRC 0007CA7C
Copy OK

No errors occurred

AccurateRip summary

Track 1 cannot be verified as accurate (confidence 1) [BC443DE6], AccurateRip returned [56667E27] (AR v2)
Track 2 cannot be verified as accurate (confidence 1) [59D3F262], AccurateRip returned [579A3A47] (AR v2)
Track 3 cannot be verified as accurate (confidence 1) [FB015F25], AccurateRip returned [DB708449] (AR v2)
Track 4 cannot be verified as accurate (confidence 1) [72E2E888], AccurateRip returned [77DE41B6] (AR v2)
Track 5 cannot be verified as accurate (confidence 1) [2764A294], AccurateRip returned [A927AFD2] (AR v2)
Track 6 cannot be verified as accurate (confidence 1) [9054545A], AccurateRip returned [9E79081A] (AR v2)
Track 7 cannot be verified as accurate (confidence 1) [9A0FBF30], AccurateRip returned [2DA21783] (AR v2)
Track 8 cannot be verified as accurate (confidence 1) [9E44F379], AccurateRip returned [A3235A7C] (AR v2)
Track 9 cannot be verified as accurate (confidence 1) [BC626E81], AccurateRip returned [56BE1EF1] (AR v2)
Track 10 cannot be verified as accurate (confidence 1) [10B9F13C], AccurateRip returned [0623F4A3] (AR v2)
Track 11 cannot be verified as accurate (confidence 1) [56819DFC], AccurateRip returned [0F593F88] (AR v2)
Track 12 cannot be verified as accurate (confidence 1) [82B38EB7], AccurateRip returned [AFE009AC] (AR v2)
Track 13 cannot be verified as accurate (confidence 1) [48E45B0A], AccurateRip returned [A578DEA9] (AR v2)

No tracks could be verified as accurate
You may have a different pressing from the one(s) in the database

End of status report

---- CUETools DB Plugin V2.1.4

[CTDB TOCID: Gu6cffR1c4QrtKCfmcqRUmM73.I-] found
Submit result: Gu6cffR1c4QrtKCfmcqRUmM73.I- has been confirmed
Track | CTDB Status
1 | (1/1) Accurately ripped
2 | (1/1) Accurately ripped
3 | (1/1) Accurately ripped
4 | (1/1) Accurately ripped
5 | (1/1) Accurately ripped
6 | (1/1) Accurately ripped
7 | (1/1) Accurately ripped
8 | (1/1) Accurately ripped
9 | (1/1) Accurately ripped
10 | (1/1) Accurately ripped
11 | (1/1) Accurately ripped
12 | (1/1) Accurately ripped
13 | (1/1) Accurately ripped

==== Log checksum CFF59166230CAF0B509CA8B03BE37A198BBB767B978379A234 FA5576632A0059 ====
[свернуть]

EAC лог

Alison Moyet - Essex (13 / 48:26)
-----------------------------------------
01. Alison Moyet - Falling [03:40]
02. Alison Moyet - And I Know [03:49]
03. Alison Moyet - Whispering Your Name [03:28]
04. Alison Moyet - Getting Into Something [04:16]
05. Alison Moyet - So Am I [03:46]
06. Alison Moyet - Satellite [04:17]
07. Alison Moyet - Ode To Boy [02:53]
08. Alison Moyet - Dorothy [03:26]
09. Alison Moyet - Another Living Day [03:45]
10. Alison Moyet - Boys Own [04:05]
11. Alison Moyet - Take Of Me [04:09]
12. Alison Moyet - Ode To Boy II [02:57]
13. Alison Moyet - Whispering Your Name (Single mix) [03:47]
[свернуть]

Лог проверки качества

AUDIOCHECKER v2.0 beta (build 457) - by Dester -
~~~~~~~~~~~~~~~~~~~~~~~~~~~~~~~~~~
-=== НЕ РЕДАКТИРУЙТЕ ЭТОТ ФАЙЛ! ===-

Путь: ...\Alison Moyet - Essex (1994)

1 -=- Alison Moyet - Essex.flac -=- CDDA (100%)

261577156
[свернуть]

Спектр частот



[свернуть]

Скачать Alison Moyet - Essex

Яндекс.Диск
[свернуть]

Вверх
Пользователь сказал cпасибо:
sergych (17.05.2013)
Похожие темы
Тема Автор Раздел Ответов Последнее сообщение
Альбом Alison Moyet - Hoodoo aheron Pop Rock 0 17.05.2013 06:03
Alison Marks - Yellow Cherry DarkDan Techno 0 25.05.2008 11:01


Метки
1994 , alison moyet , essex , pop/rock

Опции темы

Ваши права в разделе
Вы не можете создавать новые темы
Вы не можете отвечать в темах
Вы не можете прикреплять вложения
Вы не можете редактировать свои сообщения

Быстрый переход



Текущее время: 00:31. Часовой пояс GMT +3.
Powered by vBulletin® Version 3.8.10
Copyright ©2000 - 2018, vBulletin Solutions, Inc. Перевод: zCarot
© 2008 - 2018 Taifun With Song
Яндекс.Метрика