TAIFUN With Song
Навигация
Вернуться   TAIFUN With Song > Music (обменник) > Rock > Pop Rock
Расширенный поиск
Pop Rock Поп-рок — жанр музыки, объединяющий элементы поп-музыки и рок-музыки. Песни характеризуются простой структурой, запоминающимися мелодиями, повторением музыкальных фраз (от попа), использованием в качестве основных инструментов электрогитар и ударных и агрессивным настроением (от рока).

А знаете ли Вы, что...
Что поётся в песенке «уно-уно-уно, ун моменто»?
«Песенка «уно-уно-уно, ун моменто» из фильма «Формула любви» кажется написанной на итальянском языке. В действительности её текст представляет собой несвязный набор из итальянских слов, а придуман он был композитором фильма Геннадием Гладковым.»
 
Опции темы

  #1
Старый 17.05.2013, 06:03
aheron
Релизёр
Досье
 
Аватар для aheron
По умолчанию Alison Moyet - Hoodoo


Alison Moyet - Hoodoo (1991)





Исполнитель/Artist: Alison Moyet
Альбом/Album: Hoodoo
Год/Year: 1991
Жанр/Genre: Pop/Rock
Рекорд-лейбл/Record label: Sony Music Entertainment (UK) Ltd./Columbia™. Made in Austria.
Каталог/Catalog #: 468272-2
Формат/Format: Free Lossless Audio Codec (*.flac)
Качество/Quality: Lossless
Тип рипа/RIP Type: image+.cue


Продолжительность/Length: 00:47:51
Источник/Source: Из интернета
Размер/Size: 606 MB

Сканы в комплекте

Треклист

Alison Moyet - Hoodoo (11 / 47:51)
-----------------------------------------
01. Alison Moyet - Footsteps [04:59]
02. Alison Moyet - It Won't Be Long [04:14]
03. Alison Moyet - This House [03:56]
04. Alison Moyet - Rise [03:46]
05. Alison Moyet - Wishing You Were Here [03:57]
06. Alison Moyet - Hoodoo [04:43]
07. Alison Moyet - (Meeting With My) Main Man [04:40]
08. Alison Moyet - Back Where I Belong [03:51]
09. Alison Moyet - My Right A.R.M. [04:47]
10. Alison Moyet - Never Too Late [03:29]
11. Alison Moyet - Find Me [05:25]
[свернуть]

EAC лог

Exact Audio Copy V1.0 beta 3 from 29. August 2011

EAC extraction logfile from 3. April 2013, 0:41

Alison Moyet / Hoodoo

Used drive : Optiarc BD RW BD-5300S Adapter: 3 ID: 0

Read mode : Secure
Utilize accurate stream : Yes
Defeat audio cache : Yes
Make use of C2 pointers : No

Read offset correction : 6
Overread into Lead-In and Lead-Out : No
Fill up missing offset samples with silence : Yes
Delete leading and trailing silent blocks : No
Null samples used in CRC calculations : Yes
Used interface : Installed external ASPI interface

Used output format : User Defined Encoder
Selected bitrate : 1024 kBit/s
Quality : High
Add ID3 tag : No
Command line compressor : C:\Program Files (x86)\Exact Audio Copy\Flac\flac.exe
Additional command line options : -8 -V -T "Date=%year%" -T "Genre=%genre%" -T "COMMENT=ripped by bvstudio®" %source%

TOC of the extracted CD

Track | Start | Length | Start sector | End sector
---------------------------------------------------------
1 | 0:00.00 | 4:59.70 | 0 | 22494
2 | 4:59.70 | 4:14.25 | 22495 | 41569
3 | 9:14.20 | 3:56.10 | 41570 | 59279
4 | 13:10.30 | 3:46.50 | 59280 | 76279
5 | 16:57.05 | 3:57.50 | 76280 | 94104
6 | 20:54.55 | 4:43.10 | 94105 | 115339
7 | 25:37.65 | 4:40.02 | 115340 | 136341
8 | 30:17.67 | 3:51.33 | 136342 | 153699
9 | 34:09.25 | 4:47.17 | 153700 | 175241
10 | 38:56.42 | 3:29.28 | 175242 | 190944
11 | 42:25.70 | 5:25.12 | 190945 | 215331

Range status and errors

Selected range

Filename F:\Alison Moyet\1991 - Hoodoo\Alison Moyet - Hoodoo.wav

Peak level 100.0 %
Extraction speed 6.8 X
Range quality 100.0 %
Test CRC B6125A50
Copy CRC B6125A50
Copy OK

No errors occurred

AccurateRip summary

Track 1 accurately ripped (confidence 12) [C4CCC419] (AR v2)
Track 2 accurately ripped (confidence 12) [03293D00] (AR v2)
Track 3 accurately ripped (confidence 11) [269FA684] (AR v2)
Track 4 accurately ripped (confidence 12) [6378BC73] (AR v2)
Track 5 accurately ripped (confidence 12) [87D54858] (AR v2)
Track 6 accurately ripped (confidence 12) [1E735E08] (AR v2)
Track 7 accurately ripped (confidence 12) [680D7BE1] (AR v2)
Track 8 accurately ripped (confidence 12) [EEA60703] (AR v2)
Track 9 accurately ripped (confidence 12) [0EF9FDFD] (AR v2)
Track 10 accurately ripped (confidence 12) [2C484769] (AR v2)
Track 11 accurately ripped (confidence 12) [C2E4359C] (AR v2)

All tracks accurately ripped

End of status report

---- CUETools DB Plugin V2.1.4

[CTDB TOCID: nX.bk1iLjRigKuSakEaQDUGpJdQ-] found
Submit result: nX.bk1iLjRigKuSakEaQDUGpJdQ- has been confirmed
Track | CTDB Status
1 | (21/21) Accurately ripped
2 | (21/21) Accurately ripped
3 | (21/21) Accurately ripped
4 | (21/21) Accurately ripped
5 | (21/21) Accurately ripped
6 | (21/21) Accurately ripped
7 | (21/21) Accurately ripped
8 | (21/21) Accurately ripped
9 | (21/21) Accurately ripped
10 | (21/21) Accurately ripped
11 | (21/21) Accurately ripped

==== Log checksum 02640606DA214F67971A5A462651AEB119E9BE2E5C19CFFA2F 139D82C4B5AFA3 ====
[свернуть]

Лог проверки качества

AUDIOCHECKER v2.0 beta (build 457) - by Dester -
~~~~~~~~~~~~~~~~~~~~~~~~~~~~~~~~~~
-=== НЕ РЕДАКТИРУЙТЕ ЭТОТ ФАЙЛ! ===-

Путь: ...\Alison Moyet - Hoodoo (1991)

1 -=- Alison Moyet - Hoodoo.flac -=- MPEG (95%)

180617812
[свернуть]

Спектр частот



[свернуть]

Скачать Alison Moyet - Hoodoo

Яндекс.Диск
[свернуть]

Вверх
Пользователь сказал cпасибо:
sergych (17.05.2013)
Похожие темы
Тема Автор Раздел Ответов Последнее сообщение
Релиз Jason Elmore & Hoodoo Witch - Upside Your Head PUPOKIN Blues Rock 0 26.04.2010 10:37
Релиз Krokus - Hoodoo PUPOKIN Hard Rock 0 12.03.2010 10:20
Alison Marks - Yellow Cherry DarkDan Techno 0 25.05.2008 11:01


Метки
1991 , alison moyet , hoodoo , pop/rock

Опции темы

Ваши права в разделе
Вы не можете создавать новые темы
Вы не можете отвечать в темах
Вы не можете прикреплять вложения
Вы не можете редактировать свои сообщения

Быстрый переход



Текущее время: 00:30. Часовой пояс GMT +3.
Powered by vBulletin® Version 3.8.10
Copyright ©2000 - 2018, vBulletin Solutions, Inc. Перевод: zCarot
© 2008 - 2018 Taifun With Song
Яндекс.Метрика