TAIFUN With Song
Навигация
Саундтреки Саундтреки к фильмам, анимации, играм, сериалам

А знаете ли Вы, что...
Почему песня «А может быть ворона» из советского мультфильма была записана в ускоренном темпе?
«Песня «А может быть ворона» изначально должна была звучать в мультфильме «Пластилиновая ворона» в обычном темпе. Однако режиссёр Александр Татарский не проследил за временем записи, из-за чего песня не уложилась в отведённые 5 минут анимации. Решение было найдено простое — песню ускорили, в результате чего она приобрела своё знаменитое «мультяшное» звучание.»
 
Опции темы

  #1
Старый 26.08.2012, 00:40
sergych
Координатор
Досье
 
Аватар для sergych
Релиз Wag The Dog (music by Mark Knopfler)


1998 - Wag The Dog (music by Mark Knopfler)




Исполнитель/Artist: Mark Knopfler
Альбом/Album: Wag The Dog
Год/Year: 1998
Жанр/Genre: blues rock, instrumental
Рекорд-лейбл/Record label: Mercury Records
Формат/Format: Free Lossless Audio Codec (*.flac)
Качество/Quality: Lossless
Тип рипа/RIP Type: tracks+.cue
Продолжительность/Length: 00:24:14
Источник/Source: Собственный рип
Размер/Size: 151.7 MB

Сканы в комплекте

Треклист

01 - Wag the Dog
02 - Working on It
03 - In the Heartland
04 - An American Hero
05 - Just Instinct
06 - Stretching Out
07 - Drooling National
08 - We're Going to War
[свернуть]

youtube.com

[свернуть]

EAC лог

Exact Audio Copy V1.0 beta 3 from 29. August 2011

EAC extraction logfile from 26. August 2012, 2:21

Mark Knopfler / Wag the Dog

Used drive : HL-DT-STDVDRAM GH22NS70 Adapter: 0 ID: 2

Read mode : Secure
Utilize accurate stream : Yes
Defeat audio cache : Yes
Make use of C2 pointers : No

Read offset correction : 667
Overread into Lead-In and Lead-Out : No
Fill up missing offset samples with silence : Yes
Delete leading and trailing silent blocks : No
Null samples used in CRC calculations : Yes
Used interface : Native Win32 interface for Win NT & 2000
Gap handling : Appended to previous track

Used output format : User Defined Encoder
Selected bitrate : 1024 kBit/s
Quality : High
Add ID3 tag : No
Command line compressor : C:\Program Files (x86)\Exact Audio Copy\FLAC\FLAC.EXE
Additional command line options : -6 -V -T "ARTIST=%artist%" -T "TITLE=%title%" -T "ALBUM=%albumtitle%" -T "DATE=%year%" -T "TRACKNUMBER=%tracknr%" -T "GENRE=%genre%" -T "COMMENT=%comment%" -T "BAND=%albuminterpret%" -T "ALBUMARTIST=%albuminterpret%" -T "COMPOSER=%composer%" %haslyrics%--tag-from-file=LYRICS="%lyricsfile%"%haslyrics% -T "DISCNUMBER=%cdnumber%" -T "TOTALDISCS=%totalcds%" -T "TOTALTRACKS=%numtracks%" %hascover%--picture="%coverfile%"%hascover% %source% -o %dest%


TOC of the extracted CD

Track | Start | Length | Start sector | End sector
---------------------------------------------------------
1 | 0:00.00 | 4:44.67 | 0 | 21366
2 | 4:44.67 | 3:27.20 | 21367 | 36911
3 | 8:12.12 | 2:45.18 | 36912 | 49304
4 | 10:57.30 | 2:04.32 | 49305 | 58636
5 | 13:01.62 | 1:36.03 | 58637 | 65839
6 | 14:37.65 | 4:17.65 | 65840 | 85179
7 | 18:55.55 | 1:53.62 | 85180 | 93716
8 | 20:49.42 | 3:23.65 | 93717 | 109006


Track 1

Filename C:\Mark Knopfler\1998 - Wag The Dog\01 - Wag the Dog.wav

Pre-gap length 0:00:02.00

Peak level 96.6 %
Extraction speed 1.2 X
Track quality 100.0 %
Test CRC C1882117
Copy CRC C1882117
Accurately ripped (confidence 8) [63B360EB] (AR v1)
Copy OK

Track 2

Filename C:\Mark Knopfler\1998 - Wag The Dog\02 - Working on It.wav

Pre-gap length 0:00:02.12

Peak level 96.6 %
Extraction speed 1.3 X
Track quality 100.0 %
Test CRC 4A7385E6
Copy CRC 4A7385E6
Accurately ripped (confidence 8) [251D2544] (AR v1)
Copy OK

Track 3

Filename C:\Mark Knopfler\1998 - Wag The Dog\03 - In the Heartland.wav

Pre-gap length 0:00:03.70

Peak level 95.8 %
Extraction speed 1.3 X
Track quality 100.0 %
Test CRC 7A187A46
Copy CRC 7A187A46
Accurately ripped (confidence 8) [2AE4B028] (AR v1)
Copy OK

Track 4

Filename C:\Mark Knopfler\1998 - Wag The Dog\04 - An American Hero.wav

Pre-gap length 0:00:04.65

Peak level 83.9 %
Extraction speed 1.3 X
Track quality 100.0 %
Test CRC 3D08DE64
Copy CRC 3D08DE64
Accurately ripped (confidence 8) [06DD4E3F] (AR v1)
Copy OK

Track 5

Filename C:\Mark Knopfler\1998 - Wag The Dog\05 - Just Instinct.wav

Pre-gap length 0:00:05.22

Peak level 90.0 %
Extraction speed 1.3 X
Track quality 100.0 %
Test CRC 01A69B53
Copy CRC 01A69B53
Accurately ripped (confidence 8) [F0F2F1B5] (AR v1)
Copy OK

Track 6

Filename C:\Mark Knopfler\1998 - Wag The Dog\06 - Stretching Out.wav

Pre-gap length 0:00:04.18

Peak level 96.6 %
Extraction speed 1.6 X
Track quality 100.0 %
Test CRC D2ACCABF
Copy CRC D2ACCABF
Accurately ripped (confidence 8) [96371915] (AR v1)
Copy OK

Track 7

Filename C:\Mark Knopfler\1998 - Wag The Dog\07 - Drooling National.wav

Pre-gap length 0:00:03.23

Peak level 96.0 %
Extraction speed 1.1 X
Track quality 99.9 %
Test CRC F52983AC
Copy CRC F52983AC
Accurately ripped (confidence 8) [8F1270B8] (AR v1)
Copy OK

Track 8

Filename C:\Mark Knopfler\1998 - Wag The Dog\08 - We're Going to War.wav

Pre-gap length 0:00:03.07

Peak level 96.6 %
Extraction speed 1.5 X
Track quality 99.9 %
Test CRC 397A99D8
Copy CRC 397A99D8
Accurately ripped (confidence 8) [5DD166FA] (AR v1)
Copy OK


All tracks accurately ripped

No errors occurred

End of status report

---- CUETools DB Plugin V2.1.3

[CTDB TOCID: g9XiJ5YseGgPbfMoiXJaVQNrHyM-] found, Submit result: g9XiJ5YseGgPbfMoiXJaVQNrHyM- has been confirmed
[f9f834cb] (87/87) Accurately ripped


==== Log checksum EAC41D70226D094B1986E27B4A3A1099DF9E649680FFB843F2C76D93E9AB8F88 ====
[свернуть]

Файл CUE

REM GENRE "Blues rock"
REM DATE 1998
REM DISCID 7605AD08
REM COMMENT "ExactAudioCopy v1.0b3"
PERFORMER "Mark Knopfler"
TITLE "Wag the Dog"
FILE "01 - Wag the Dog.wav" WAVE
TRACK 01 AUDIO
TITLE "Wag the Dog"
PERFORMER "Mark Knopfler"
INDEX 01 00:00:00
TRACK 02 AUDIO
TITLE "Working on It"
PERFORMER "Mark Knopfler"
INDEX 00 04:42:55
FILE "02 - Working on It.wav" WAVE
INDEX 01 00:00:00
TRACK 03 AUDIO
TITLE "In the Heartland"
PERFORMER "Mark Knopfler"
INDEX 00 03:23:25
FILE "03 - In the Heartland.wav" WAVE
INDEX 01 00:00:00
TRACK 04 AUDIO
TITLE "An American Hero"
PERFORMER "Mark Knopfler"
INDEX 00 02:40:28
FILE "04 - An American Hero.wav" WAVE
INDEX 01 00:00:00
TRACK 05 AUDIO
TITLE "Just Instinct"
PERFORMER "Mark Knopfler"
INDEX 00 01:59:10
FILE "05 - Just Instinct.wav" WAVE
INDEX 01 00:00:00
TRACK 06 AUDIO
TITLE "Stretching Out"
PERFORMER "Mark Knopfler"
INDEX 00 01:31:60
FILE "06 - Stretching Out.wav" WAVE
INDEX 01 00:00:00
TRACK 07 AUDIO
TITLE "Drooling National"
PERFORMER "Mark Knopfler"
INDEX 00 04:14:42
FILE "07 - Drooling National.wav" WAVE
INDEX 01 00:00:00
TRACK 08 AUDIO
TITLE "We're Going to War"
PERFORMER "Mark Knopfler"
INDEX 00 01:50:55
FILE "08 - We're Going to War.wav" WAVE
INDEX 01 00:00:00
[свернуть]

Лог проверки качества

AUDIOCHECKER v2.0 beta (build 457) - by Dester -
~~~~~~~~~~~~~~~~~~~~~~~~~~~~~~~~~~
-=== НЕ РЕДАКТИРУЙТЕ ЭТОТ ФАЙЛ! ===-

Путь: ...\1998 - Wag The Dog

1 -=- 01 - Wag the Dog.flac -=- CDDA (100%)
2 -=- 02 - Working on It.flac -=- CDDA (100%)
3 -=- 03 - In the Heartland.flac -=- CDDA (100%)
4 -=- 04 - An American Hero.flac -=- CDDA (100%)
5 -=- 05 - Just Instinct.flac -=- CDDA (85%)
6 -=- 06 - Stretching Out.flac -=- CDDA (100%)
7 -=- 07 - Drooling National.flac -=- CDDA (100%)
8 -=- 08 - We're Going to War.flac -=- CDDA (100%)

Сводка 98,13% CDDA

226348708
[свернуть]

Скачать Wag The Dog (music by Mark Knopfler)



password: sergych
[свернуть]
My opinion of release: 10/10

Release info RInfo

Альбом-саундтрек Mark Knopfler к фильму Wag the Dog 2004 года (продюссер - Barry Levinson, в главных ролях - Dustin Hoffman и Robert Deniro)
__________________
TAIFUN.Wings of Soul


Последний раз редактировалось sergych, 30.11.2013 в 18:29. Причина: перезаливка
Вверх
Похожие темы
Тема Автор Раздел Ответов Последнее сообщение
Саундтрек The Princess Bride (music by Mark Knopfler) sergych Саундтреки 0 17.09.2010 09:10
Саундтрек Cal (music by Mark Knopfler) sergych Саундтреки 0 16.09.2010 10:40
Саундтрек Local Hero / Местный герой (music by Mark Knopfler) sergych Саундтреки 0 14.09.2010 12:54
Сборник Mark Knopfler - Screenplaying sergych Blues Rock 0 23.07.2010 17:25


Метки
2004 , blues rock , instrumental , knopfler , mark knopfler , wag the dog

Опции темы

Ваши права в разделе
Вы не можете создавать новые темы
Вы не можете отвечать в темах
Вы не можете прикреплять вложения
Вы не можете редактировать свои сообщения

Быстрый переход



Текущее время: 02:17. Часовой пояс GMT +3.
Powered by vBulletin® Version 3.8.10
Copyright ©2000 - 2018, vBulletin Solutions, Inc. Перевод: zCarot
© 2008 - 2018 Taifun With Song
Яндекс.Метрика