TAIFUN With Song
Навигация
Вернуться   TAIFUN With Song > Music (обменник) > POP > Зарубежная Поп-Музыка
Расширенный поиск
А знаете ли Вы, что...
Почему Майкл Джексон получал половину доходов от продаж песен Beatles?
«В 1984 году на аукционе продавались издательские права на песни Beatles. Его выиграл Майкл Джексон, заплатив почти 50 миллионов долларов — больше, чем предлагал сам Пол Маккартни. С этого времени Джексон получал половину доходов от продаж Beatles (другую половину получали авторы песен, главным образом Маккартни). В 1995 году компания Sony выкупила у Джексона половину его прав, так что в последнее время он получал только четверть доходов.»
 
Опции темы

  #1
Старый 14.02.2018, 17:04
sergych
Координатор
Досье
 
Аватар для sergych
Релиз Belinda Carlisle - A Woman & A Man


1996 - Belinda Carlisle - A Woman & A Man




Исполнитель/Artist: Belinda Carlisle
Альбом/Album: A Woman & A Man
Год/Year: 1996
Жанр/Genre: pop
Страна/Country: Япония
Рекорд-лейбл/Record label: EMI
Номер в каталоге/Catalogue #: TOCP-50002
Формат/Format: Free Lossless Audio Codec (*.flac)
Качество/Quality: Lossless
Тип рипа/RIP Type: image+.cue
Продолжительность/Length: 00:50:48
Источник/Source: Собственный рип
Размер/Size: 439.3 MB

Сканы в комплекте

Треклист

01. In Too Deep [0:04:05.68]
02. California [0:02:59.02]
03. A Woman And A Man [0:05:12.33]
04. Remember September [0:04:32.60]
05. Listen To Love [0:04:09.37]
06. Always Breaking My Heart [0:03:12.18]
07. Love Doesn't Live Here [0:04:09.50]
08. He Goes On [0:03:13.70]
09. Kneel At Your Feet [0:04:18.60]
10. Love In The Key Of C [0:03:50.55]
11. My Heart Goes Out To You [0:03:40.65]

Bonus tracks:
12. The Ballad Of Lucy Jordan [0:04:04.67]
13. Love Walks In [0:03:16.53]
[свернуть]

youtube.com

[свернуть]

Исполнители/Performers

Belinda Carlisle – vocals
Andy Brown – conductor
Ellen Shipley – background vocals (track 1)
Maria Vidal – background vocals (track 1)
Brian Wilson – background vocals (track 2)
Nick Beggs – bass (tracks 1–5 and 7), stick
Paulinho Da Costa – percussion (tracks 1–5 and 8–10)
Caroline Dale – string arrangements
Steve Farris – acoustic guitar, electric guitar
Per Gessle – electric guitar, background vocals, producer
Phil Grande – guitar (tracks 1 and 2)
Andres Herlin – bass guitar
Jonas Isacsson – acoustic guitar, electric guitar
Davey Johnstone – mandolin (track 1)
Rory Kaplan – piano, keyboards (tracks 1 and 2), drum programming
Louis Metoyer – acoustic guitar, electric guitar, guitar
Clarence Ofwerman – keyboards, programming, producer
Steve Wren – drums (tracks 1 and 2)
Red Young – organ
[свернуть]

EAC лог

Exact Audio Copy V1.3 from 2. September 2016

EAC extraction logfile from 25. March 2018, 1:37

Belinda Carlisle / A Woman & A Man

Used drive : ATAPI iHAS124 D Adapter: 0 ID: 2

Read mode : Secure
Utilize accurate stream : Yes
Defeat audio cache : Yes
Make use of C2 pointers : No

Read offset correction : 6
Overread into Lead-In and Lead-Out : No
Fill up missing offset samples with silence : Yes
Delete leading and trailing silent blocks : No
Null samples used in CRC calculations : Yes
Used interface : Installed external ASPI interface

Used output format : User Defined Encoder
Selected bitrate : 1024 kBit/s
Quality : High
Add ID3 tag : No
Command line compressor : C:\Program Files (x86)\Exact Audio Copy\Flac\flac.exe
Additional command line options : -6 -V -T "ARTIST=%artist%" -T "TITLE=%title%" -T "ALBUM=%albumtitle%" -T "DATE=%year%" -T "TRACKNUMBER=%tracknr%" -T "GENRE=%genre%" -T "COMMENT=%comment%" -T "BAND=%albuminterpret%" -T "ALBUMARTIST=%albuminterpret%" -T "COMPOSER=%composer%" %haslyrics%--tag-from-file=LYRICS="%lyricsfile%"%haslyrics% -T "DISCNUMBER=%cdnumber%" -T "TOTALDISCS=%totalcds%" -T "TOTALTRACKS=%numtracks%" %hascover%--picture="%coverfile%"%hascover% %source% -o %dest%


TOC of the extracted CD

Track | Start | Length | Start sector | End sector
---------------------------------------------------------
1 | 0:00.32 | 4:05.68 | 32 | 18474
2 | 4:06.25 | 2:59.02 | 18475 | 31901
3 | 7:05.27 | 5:12.33 | 31902 | 55334
4 | 12:17.60 | 4:32.60 | 55335 | 75794
5 | 16:50.45 | 4:09.37 | 75795 | 94506
6 | 21:00.07 | 3:12.18 | 94507 | 108924
7 | 24:12.25 | 4:09.50 | 108925 | 127649
8 | 28:22.00 | 3:13.70 | 127650 | 142194
9 | 31:35.70 | 4:18.60 | 142195 | 161604
10 | 35:54.55 | 3:50.55 | 161605 | 178909
11 | 39:45.35 | 3:40.65 | 178910 | 195474
12 | 43:26.25 | 4:04.67 | 195475 | 213841
13 | 47:31.17 | 3:16.53 | 213842 | 228594


Range status and errors

Selected range

Filename C:\mm\Belinda Carlisle\1996 - A Woman & A Man [TOCP-50002]\Belinda Carlisle - A Woman & A Man.wav

Peak level 98.5 %
Extraction speed 1.7 X
Range quality 100.0 %
Test CRC 4065BADE
Copy CRC 4065BADE
Copy OK

No errors occurred

End of status report

---- CUETools DB Plugin V2.1.6

[CTDB TOCID: hRQf9h8xxHU8Ss8KAtkuyjWSkw0-] found
Submit result: already submitted
Track | CTDB Status
1 | (25/25) Accurately ripped
2 | (25/25) Accurately ripped
3 | (25/25) Accurately ripped
4 | (25/25) Accurately ripped
5 | (25/25) Accurately ripped
6 | (25/25) Accurately ripped
7 | (25/25) Accurately ripped
8 | (25/25) Accurately ripped
9 | (25/25) Accurately ripped
10 | (25/25) Accurately ripped
11 | (25/25) Accurately ripped
12 | (25/25) Accurately ripped
13 | (25/25) Accurately ripped
[свернуть]

Файл CUE

REM GENRE Pop
REM DATE 1996
REM DISCID B60BE70D
REM COMMENT "ExactAudioCopy v1.3"
PERFORMER "Belinda Carlisle"
TITLE "A Woman & A Man"
REM COMPOSER ""
FILE "Belinda Carlisle - A Woman & A Man.flac" WAVE
TRACK 01 AUDIO
TITLE "In Too Deep"
PERFORMER "Belinda Carlisle"
REM COMPOSER ""
INDEX 00 00:00:00
INDEX 01 00:00:32
TRACK 02 AUDIO
TITLE "California"
PERFORMER "Belinda Carlisle"
REM COMPOSER ""
INDEX 00 04:06:22
INDEX 01 04:06:25
TRACK 03 AUDIO
TITLE "A Woman And A Man"
PERFORMER "Belinda Carlisle"
REM COMPOSER ""
INDEX 00 07:05:25
INDEX 01 07:05:27
TRACK 04 AUDIO
TITLE "Remember September"
PERFORMER "Belinda Carlisle"
REM COMPOSER ""
INDEX 00 12:17:30
INDEX 01 12:17:60
TRACK 05 AUDIO
TITLE "Listen To Love"
PERFORMER "Belinda Carlisle"
REM COMPOSER ""
INDEX 00 16:50:42
INDEX 01 16:50:45
TRACK 06 AUDIO
TITLE "Always Breaking My Heart"
PERFORMER "Belinda Carlisle"
REM COMPOSER ""
INDEX 00 20:59:42
INDEX 01 21:00:07
TRACK 07 AUDIO
TITLE "Love Doesn't Live Here"
PERFORMER "Belinda Carlisle"
REM COMPOSER ""
INDEX 00 24:12:22
INDEX 01 24:12:25
TRACK 08 AUDIO
TITLE "He Goes On"
PERFORMER "Belinda Carlisle"
REM COMPOSER ""
INDEX 00 28:21:72
INDEX 01 28:22:00
TRACK 09 AUDIO
TITLE "Kneel At Your Feet"
PERFORMER "Belinda Carlisle"
REM COMPOSER ""
INDEX 00 31:35:67
INDEX 01 31:35:70
TRACK 10 AUDIO
TITLE "Love In The Key Of C"
PERFORMER "Belinda Carlisle"
REM COMPOSER ""
INDEX 00 35:54:52
INDEX 01 35:54:55
TRACK 11 AUDIO
TITLE "My Heart Goes Out To You"
PERFORMER "Belinda Carlisle"
REM COMPOSER ""
INDEX 00 39:44:70
INDEX 01 39:45:35
TRACK 12 AUDIO
TITLE "The Ballad Of Lucy Jordan"
PERFORMER "Belinda Carlisle"
REM COMPOSER ""
INDEX 00 43:20:50
INDEX 01 43:26:25
TRACK 13 AUDIO
TITLE "Love Walks In"
PERFORMER "Belinda Carlisle"
REM COMPOSER ""
INDEX 01 47:31:17
[свернуть]

Лог проверки качества

AUDIOCHECKER v2.0 beta (build 457) - by Dester -
~~~~~~~~~~~~~~~~~~~~~~~~~~~~~~~~~~
-=== НЕ РЕДАКТИРУЙТЕ ЭТОТ ФАЙЛ! ===-

Путь: ...\1996 - A Woman & A Man [TOCP-50002]

1 -=- Belinda Carlisle - A Woman & A Man.flac -=- CDDA (99%)

178105284
[свернуть]

Спектр частот

[свернуть]

Скачать Belinda Carlisle - A Woman & A Man



password: sergych
[свернуть]

Контрольная сумма (хеш-сумма) архива

MD5: 17ec4015c2a038e8d2a905f0629c085d
[свернуть]
My opinion of release: 10/10
__________________
TAIFUN.Wings of Soul


Последний раз редактировалось sergych, 25.03.2018 в 05:43. Причина: перезалито
Вверх
4 пользователя(ей) сказали cпасибо:
Показать список поблагодаривших
  #2
Старый 15.02.2018, 09:09
swint68
Меломан
Досье
 
Аватар для swint68
По умолчанию Re: Belinda Carlisle - A Woman & A Man

Супер!
Спасибо большое!

Вверх
2 пользователя(ей) сказали cпасибо:
sergych (18.02.2018), TAIFUN (21.02.2018)
  #3
Старый 25.03.2018, 05:44
sergych
Координатор
Досье
 
Аватар для sergych
По умолчанию Re: Belinda Carlisle - A Woman & A Man

перезалито новым рипом с исправленными настройками EAC
__________________
TAIFUN.Wings of Soul

Вверх
4 пользователя(ей) сказали cпасибо:
Показать список поблагодаривших
Похожие темы
Тема Автор Раздел Ответов Последнее сообщение
Альбом Belinda Carlisle - Runaway Horses sergych Pop Rock 1 13.05.2017 07:04
Релиз Belinda - Catarsis PUPOKIN Зарубежная Поп-Музыка 0 13.08.2013 08:32
Релиз Keyshia Cole - Woman To Woman PUPOKIN R&B 0 16.11.2012 08:52
VA Always A Woman PUPOKIN Зарубежная Поп-Музыка 0 02.07.2010 09:03
Релиз Belinda Carlisle - Heaven on Earth PUPOKIN Pop Rock 0 05.06.2009 10:25


Метки
1996 , a woman & a man , belinda carlisle , pop

Опции темы

Ваши права в разделе
Вы не можете создавать новые темы
Вы не можете отвечать в темах
Вы не можете прикреплять вложения
Вы не можете редактировать свои сообщения

Быстрый переход



Текущее время: 18:41. Часовой пояс GMT +3.
Powered by vBulletin® Version 3.8.10
Copyright ©2000 - 2018, vBulletin Solutions, Inc. Перевод: zCarot
© 2008 - 2018 Taifun With Song
Яндекс.Метрика