TAIFUN With Song
Навигация
Вернуться   TAIFUN With Song > Music (обменник) > Другие направления музыки > Jazz и Blues
Расширенный поиск
Jazz и Blues Гибкая ритмика, импровизационное начало, гармонии и мелодии - все это Jazz. Blues - жизнеутверждающая музыка, рожденная из душевной боли

А знаете ли Вы, что...
Кто такой Сироб Вокищнеберг, упомянутый в описании альбома «Яблокитай» группы «Наутилус Помпилиус»?
«В описании альбома «Яблокитай» группы «Наутилус Помпилиус» указан некий профессор Сироб Вокищнеберг, играющий на реверсах. Этот таинственный человек никто иной, как Борис Гребенщиков, записанный наоборот. Таким образом удачно обыграли его работу с реверсами — прокручиванием музыкальных фрагментов в обратном направлении.»
 
Опции темы

  #1
Старый 26.12.2008, 19:41
sergych
Координатор
Досье
 
Аватар для sergych
Релиз Ben Webster & Oscar Peterson - Ben Webster Meets Oscar Peterson

1960(1997) - Ben Webster Meets Oscar Peterson



Исполнитель/Artist: Ben Webster & Oscar Peterson
Альбом/Album: Ben Webster Meets Oscar Peterson
Год/Year: 1960 (1997)
Жанр/Genre: Jazz
Издатель/Label: PolyGram Records
Формат/Format: mp3 CBR
Качество/Quality: 320 kbps Stereo
Размер/Size: 103.6 MB
Продолжительность/Length: 00:36:44

сканы в комплекте

Треклист

01 - "The Touch of Your Lips" (Ray Noble)
02 - "When Your Lover Has Gone" (Einar Aaron Swan)
03 - "Bye Bye Blackbird" (Mort Dixon, Ray Henderson)
04 - "How Deep Is the Ocean?" (Irving Berlin)
05 - "In the Wee Small Hours of the Morning" (Bob Hilliard, David Mann)
06 - "Sunday" (Chester Conn, Benny Krueger, Ned Miller, Jule Styne)
07 - "This Can't Be Love" (Lorenz Hart, Richard Rodgers)
[свернуть]

Скачать Ben Webster Meets Oscar Peterson




password: sergych
[свернуть]
My opinion of release: 10/10
__________________
TAIFUN.Wings of Soul


Последний раз редактировалось sergych, 01.03.2013 в 09:03. Причина: перезаливка
Вверх
  #2
Старый 01.06.2018, 18:07
sergych
Координатор
Досье
 
Аватар для sergych
Релиз Re: Ben Webster & Oscar Peterson - Ben Webster Meets Oscar Peterson


1960 - Ben Webster & Oscar Peterson - Ben Webster Meets Oscar Peterson




Исполнитель/Artist: Ben Webster & Oscar Peterson
Альбом/Album: Ben Webster Meets Oscar Peterson
Год/Year: 1960
Ремастеринг/Remaster: 1997
Жанр/Genre: Jazz, Contemporary Jazz
Страна/Country: Германия
Рекорд-лейбл/Record label: Verve
Номер в каталоге/Catalogue #: 521 448-2
Формат/Format: Free Lossless Audio Codec (*.flac)
Качество/Quality: Lossless
Тип рипа/RIP Type: image+.cue
Продолжительность/Length: 00:36:45
Источник/Source: Собственный рип
Размер/Size: 264.9 MB

Сканы в комплекте

Треклист

01. The Touch Of Your Lips [0:06:20.42]
02. When Your Lover Has Gone [0:03:59.50]
03. Bye Bye Blackbird [0:06:45.60]
04. How Deep Is The Ocean [0:02:36.10]
05. In The Wee Small Hours Of The Morning [0:03:13.10]
06. Sunday [0:03:57.70]
07. This Can't Be Love [0:09:51.33]
[свернуть]

youtube.com

[свернуть]

Исполнители/Performers

Oscar Peterson - piano
Ben Webster - tenor saxophone
Ray Brown - double bass
Ed Thigpen - drums
[свернуть]

EAC лог

Exact Audio Copy V1.3 from 2. September 2016

EAC extraction logfile from 31. May 2018, 13:11

Ben Webster & Oscar Peterson / Ben Webster Meets Oscar Peterson

Used drive : ATAPI iHAS124 D Adapter: 0 ID: 2

Read mode : Secure
Utilize accurate stream : Yes
Defeat audio cache : Yes
Make use of C2 pointers : No

Read offset correction : 6
Overread into Lead-In and Lead-Out : No
Fill up missing offset samples with silence : Yes
Delete leading and trailing silent blocks : No
Null samples used in CRC calculations : Yes
Used interface : Installed external ASPI interface

Used output format : User Defined Encoder
Selected bitrate : 1024 kBit/s
Quality : High
Add ID3 tag : No
Command line compressor : C:\Program Files (x86)\Exact Audio Copy\Flac\flac.exe
Additional command line options : -6 -V -T "ARTIST=%artist%" -T "TITLE=%title%" -T "ALBUM=%albumtitle%" -T "DATE=%year%" -T "TRACKNUMBER=%tracknr%" -T "GENRE=%genre%" -T "COMMENT=%comment%" -T "BAND=%albuminterpret%" -T "ALBUMARTIST=%albuminterpret%" -T "COMPOSER=%composer%" %haslyrics%--tag-from-file=LYRICS="%lyricsfile%"%haslyrics% -T "DISCNUMBER=%cdnumber%" -T "TOTALDISCS=%totalcds%" -T "TOTALTRACKS=%numtracks%" %hascover%--picture="%coverfile%"%hascover% %source% -o %dest%


TOC of the extracted CD

Track | Start | Length | Start sector | End sector
---------------------------------------------------------
1 | 0:00.00 | 6:20.42 | 0 | 28541
2 | 6:20.42 | 3:59.50 | 28542 | 46516
3 | 10:20.17 | 6:45.60 | 46517 | 76951
4 | 17:06.02 | 2:36.10 | 76952 | 88661
5 | 19:42.12 | 3:13.10 | 88662 | 103146
6 | 22:55.22 | 3:57.70 | 103147 | 120991
7 | 26:53.17 | 9:51.33 | 120992 | 165349


Range status and errors

Selected range

Filename C:\mm\Oscar Peterson\1960(1997) - Ben Webster Meets Oscar Peterson [521 448-2]\Ben Webster & Oscar Peterson - Ben Webster Meets Oscar Peterson.wav

Peak level 100.0 %
Extraction speed 1.6 X
Range quality 100.0 %
Test CRC D47538B0
Copy CRC D47538B0
Copy OK

No errors occurred

End of status report

---- CUETools DB Plugin V2.1.6

[CTDB TOCID: Hi1zO.Exr6wA0v4IzaNtemIuSRI-] found
Submit result: Hi1zO.Exr6wA0v4IzaNtemIuSRI- has been confirmed
Track | CTDB Status
1 | (126/131) Accurately ripped
2 | (128/131) Accurately ripped
3 | (128/131) Accurately ripped
4 | (128/131) Accurately ripped
5 | (126/131) Accurately ripped
6 | (128/131) Accurately ripped
7 | (127/131) Accurately ripped
[свернуть]

Файл CUE

REM GENRE Jazz
REM DATE 1959
REM DISCID 51089C07
REM COMMENT "ExactAudioCopy v1.3"
PERFORMER "Ben Webster & Oscar Peterson"
TITLE "Ben Webster Meets Oscar Peterson"
REM COMPOSER ""
FILE "Ben Webster & Oscar Peterson - Ben Webster Meets Oscar Peterson.flac" WAVE
TRACK 01 AUDIO
TITLE "The Touch Of Your Lips"
PERFORMER "Ben Webster & Oscar Peterson"
REM COMPOSER ""
INDEX 01 00:00:00
TRACK 02 AUDIO
TITLE "When Your Lover Has Gone"
PERFORMER "Ben Webster & Oscar Peterson"
REM COMPOSER ""
INDEX 00 06:17:20
INDEX 01 06:20:42
TRACK 03 AUDIO
TITLE "Bye Bye Blackbird"
PERFORMER "Ben Webster & Oscar Peterson"
REM COMPOSER ""
INDEX 00 10:17:30
INDEX 01 10:20:17
TRACK 04 AUDIO
TITLE "How Deep Is The Ocean"
PERFORMER "Ben Webster & Oscar Peterson"
REM COMPOSER ""
INDEX 00 17:02:57
INDEX 01 17:06:02
TRACK 05 AUDIO
TITLE "In The Wee Small Hours Of The Morning"
PERFORMER "Ben Webster & Oscar Peterson"
REM COMPOSER ""
INDEX 00 19:39:05
INDEX 01 19:42:12
TRACK 06 AUDIO
TITLE "Sunday"
PERFORMER "Ben Webster & Oscar Peterson"
REM COMPOSER ""
INDEX 00 22:52:65
INDEX 01 22:55:22
TRACK 07 AUDIO
TITLE "This Can't Be Love"
PERFORMER "Ben Webster & Oscar Peterson"
REM COMPOSER ""
INDEX 00 26:50:17
INDEX 01 26:53:17
[свернуть]

Лог проверки качества

AUDIOCHECKER v2.0 beta (build 457) - by Dester -
~~~~~~~~~~~~~~~~~~~~~~~~~~~~~~~~~~
-=== НЕ РЕДАКТИРУЙТЕ ЭТОТ ФАЙЛ! ===-

Путь: ...\1960(1997) - Ben Webster Meets Oscar Peterson [521 448-2]

1 -=- Ben Webster & Oscar Peterson - Ben Webster Meets Oscar Peterson.flac -=- CDDA (100%)

55679028
[свернуть]

Спектр частот

[свернуть]

Скачать Ben Webster & Oscar Peterson - Ben Webster Meets Oscar Peterson



password: sergych
[свернуть]

Контрольная сумма (хеш-сумма) архива

MD5: 5bcb4a7bf998c2bf42a888d2d6afb3cd
[свернуть]
My opinion of release: 10/10

Release info RInfo

с удивлением обнаружил, перебирая свои "закрома", не рипнутый диск, ждущий своего часа уже более 2,5 лет. С удовольствием исправляю упущение
__________________
TAIFUN.Wings of Soul

Вверх
Пользователь сказал cпасибо:
swint68 (01.06.2018)
Похожие темы
Тема Автор Раздел Ответов Последнее сообщение
Live Oscar Peterson - In Russia sergych Jazz и Blues 1 31.08.2013 19:50
Альбом Oscar Peterson - Tracks sergych Jazz и Blues 0 02.06.2009 19:43
Альбом Oscar Peterson - Oscar Peterson plays Porgy & Bess sergych Jazz и Blues 0 27.12.2008 07:28
Сборник Oscar Peterson - An Oscar Peterson Christmas sergych Jazz и Blues 0 27.12.2008 06:27
Альбом Count Basie & Oscar Peterson - The Timekeepers (Count Basie Meets Oscar Peterson) sergych Jazz и Blues 0 26.12.2008 05:10


Метки
ben webster , jazz , oscar peterson , джаз

Опции темы

Ваши права в разделе
Вы не можете создавать новые темы
Вы не можете отвечать в темах
Вы не можете прикреплять вложения
Вы не можете редактировать свои сообщения

Быстрый переход



Текущее время: 05:09. Часовой пояс GMT +3.
Powered by vBulletin® Version 3.8.10
Copyright ©2000 - 2018, vBulletin Solutions, Inc. Перевод: zCarot
© 2008 - 2018 Taifun With Song
Яндекс.Метрика