TAIFUN With Song
Навигация
Jazz и Blues Гибкая ритмика, импровизационное начало, гармонии и мелодии - все это Jazz. Blues - жизнеутверждающая музыка, рожденная из душевной боли

А знаете ли Вы, что...
Какой пианист играл одной левой?
«Австрийский пианист Пауль Витгенштейн потерял правую руку в Первой Мировой войне, однако возобновил концертную карьеру и достиг исключительного мастерства, играя одной левой. Виртуозное владение пианистической техникой позволило Витгенштейну успешно исполнять сочинения, сопоставимые по сложности даже для пианиста с двумя руками.»
 
Опции темы

  #1
Старый 24.09.2013, 17:25
sergych
Координатор
Досье
 
Аватар для sergych
Релиз Diana Krall - When I Look In Your Eyes


1999 - Diana Krall - When I Look In Your Eyes




Исполнитель/Artist: Diana Krall
Альбом/Album: When I Look In Your Eyes
Год/Year: 1999
Жанр/Genre: Smooth Jazz, Contemporary Jazz, Vocal jazz
Рекорд-лейбл/Record label: Verve
Номер в каталоге/Catalogue #: 050 304-2
Формат/Format: Free Lossless Audio Codec (*.flac)
Качество/Quality: Lossless
Тип рипа/RIP Type: tracks+.cue
Продолжительность/Length: 00:54:20
Источник/Source: Из интернета
Размер/Size: 342.3 MB

Сканы в комплекте

Треклист

01 - Let's Face The Music And Dance
02 - Devil May Care
03 - Let's Fall In Love
04 - When I Look In Your Eyes
05 - Popsicle Toes
06 - I've Got You Under My Skin
07 - I Can't Give You Anything But Love
08 - I'll String Along With You
09 - East Of The Sun (And West Of The Moon)
10 - Pick Yourself Up
11 - The Best Thing For You
12 - Do It Again
13 - Why Should I Care
[свернуть]

youtube.com

[свернуть]

Исполнители/Performers

Diana Krall - piano, vocals
Chuck Berghofer - bass
Alan Broadbent - piano
Larry Bunker - vibraphone
Pete Christlieb - saxophone
John Clayton - bass
Jeff Hamilton - drums
Eddie Karam - conductor
Russell Malone - guitar
Johnny Mandel - conductor
Lewis Nash - drums
Ben Wolfe - bass
[свернуть]

EAC лог

Exact Audio Copy V1.0 beta 1 from 15. November 2010

Отчёт EAC об извлечении, выполненном 4. апреля 2012, 19:49

Diana Krall / When I Look In Your Eyes

Дисковод: HL-DT-STDVDRAM GT32N Adapter: 1 ID: 0

Режим чтения : Достоверность
Использование точного потока : Да
Отключение кэша аудио : Да
Использование указателей C2 : Нет

Коррекция смещения при чтении : 103
Способность читать области Lead-in и Lead-out : Нет
Заполнение пропущенных сэмплов тишиной : Да
Удаление блоков с тишиной в начале и конце : Нет
При вычислениях CRC использовались нулевые сэмплы : Да
Интерфейс : Встроенный Win32-интерфейс для Win NT/2000
Обработка зазоров : Добавлено к предыдущему треку

Выходной формат : Пользовательский кодировщик
Выбранный битрейт : 768 kBit/s
Качество : Высокий
Добавление ID3-тега : Нет
Утилита сжатия : C:\Program Files (x86)\Exact Audio Copy\Flac\flac.exe
Дополнительные параметры : -8 -V %s


TOC извлечённого CD

Трек | Старт | Длительность | Начальный сектор | Конечный сектор
---------------------------------------------------------------------
1 | 0:00.33 | 5:18.27 | 33 | 23909
2 | 5:18.60 | 3:20.28 | 23910 | 38937
3 | 8:39.13 | 4:19.17 | 38938 | 58379
4 | 12:58.30 | 4:31.53 | 58380 | 78757
5 | 17:30.08 | 4:28.17 | 78758 | 98874
6 | 21:58.25 | 6:10.60 | 98875 | 126684
7 | 28:09.10 | 2:33.23 | 126685 | 138182
8 | 30:42.33 | 4:45.37 | 138183 | 159594
9 | 35:27.70 | 4:56.60 | 159595 | 181854
10 | 40:24.55 | 3:01.68 | 181855 | 195497
11 | 43:26.48 | 2:36.47 | 195498 | 207244
12 | 46:03.20 | 4:45.20 | 207245 | 228639
13 | 50:48.40 | 3:46.05 | 228640 | 245594


Трек 1

Имя файла C:\Users\Admin\Music\Diana Krall - дискография\1999 - When I Look In Your Eyes [FLAC]\01. Let's Face The Music And Dance.wav

Длина предзазора 0:00:02.33

Пиковый уровень 100.0 %
Скорость извлечения 1.3 X
Качество трека 100.0 %
CRC теста 83703B06
CRC копии 83703B06
Точное извлечение (достоверность 11) [03DAFDEB]
Копирование... OK

Трек 2

Имя файла C:\Users\Admin\Music\Diana Krall - дискография\1999 - When I Look In Your Eyes [FLAC]\02. Devil May Care.wav

Длина предзазора 0:00:00.13

Пиковый уровень 100.0 %
Скорость извлечения 1.4 X
Качество трека 100.0 %
CRC теста 550C3B29
CRC копии 550C3B29
Точное извлечение (достоверность 11) [444ED365]
Копирование... OK

Трек 3

Имя файла C:\Users\Admin\Music\Diana Krall - дискография\1999 - When I Look In Your Eyes [FLAC]\03. Let's Fall In Love.wav

Длина предзазора 0:00:00.23

Пиковый уровень 100.0 %
Скорость извлечения 1.5 X
Качество трека 100.0 %
CRC теста 564DFD20
CRC копии 564DFD20
Точное извлечение (достоверность 11) [C08518B1]
Копирование... OK

Трек 4

Имя файла C:\Users\Admin\Music\Diana Krall - дискография\1999 - When I Look In Your Eyes [FLAC]\04. When I Look In Your Eyes.wav

Длина предзазора 0:00:00.20

Пиковый уровень 100.0 %
Скорость извлечения 1.7 X
Качество трека 100.0 %
CRC теста BB6FF57B
CRC копии BB6FF57B
Точное извлечение (достоверность 11) [FC8FB4F0]
Копирование... OK

Трек 5

Имя файла C:\Users\Admin\Music\Diana Krall - дискография\1999 - When I Look In Your Eyes [FLAC]\05. Popsicle Toes.wav

Длина предзазора 0:00:00.20

Пиковый уровень 100.0 %
Скорость извлечения 1.8 X
Качество трека 100.0 %
CRC теста 377697CA
CRC копии 377697CA
Точное извлечение (достоверность 11) [FDC29B16]
Копирование... OK

Трек 6

Имя файла C:\Users\Admin\Music\Diana Krall - дискография\1999 - When I Look In Your Eyes [FLAC]\06. I've Got You Under My Skin.wav

Длина предзазора 0:00:00.28

Пиковый уровень 100.0 %
Скорость извлечения 2.0 X
Качество трека 100.0 %
CRC теста 0B8770BB
CRC копии 0B8770BB
Точное извлечение (достоверность 11) [EFA96E30]
Копирование... OK

Трек 7

Имя файла C:\Users\Admin\Music\Diana Krall - дискография\1999 - When I Look In Your Eyes [FLAC]\07. I Can't Give You Anything But Love.wav

Длина предзазора 0:00:00.28

Пиковый уровень 100.0 %
Скорость извлечения 1.9 X
Качество трека 100.0 %
CRC теста A494C8D3
CRC копии A494C8D3
Точное извлечение (достоверность 11) [115D18A0]
Копирование... OK

Трек 8

Имя файла C:\Users\Admin\Music\Diana Krall - дискография\1999 - When I Look In Your Eyes [FLAC]\08. I'll String Along With You.wav

Длина предзазора 0:00:00.23

Пиковый уровень 100.0 %
Скорость извлечения 2.1 X
Качество трека 100.0 %
CRC теста 7534C063
CRC копии 7534C063
Точное извлечение (достоверность 11) [5DA7307F]
Копирование... OK

Трек 9

Имя файла C:\Users\Admin\Music\Diana Krall - дискография\1999 - When I Look In Your Eyes [FLAC]\09. East Of The Sun (And West Of The Moon).wav

Длина предзазора 0:00:00.30

Пиковый уровень 100.0 %
Скорость извлечения 2.2 X
Качество трека 100.0 %
CRC теста ADB3E5F2
CRC копии ADB3E5F2
Точное извлечение (достоверность 11) [F7123004]
Копирование... OK

Трек 10

Имя файла C:\Users\Admin\Music\Diana Krall - дискография\1999 - When I Look In Your Eyes [FLAC]\10. Pick Yourself Up.wav

Длина предзазора 0:00:00.25

Пиковый уровень 100.0 %
Скорость извлечения 2.1 X
Качество трека 100.0 %
CRC теста 31CD9AE5
CRC копии 31CD9AE5
Точное извлечение (достоверность 11) [0C7BE579]
Копирование... OK

Трек 11

Имя файла C:\Users\Admin\Music\Diana Krall - дискография\1999 - When I Look In Your Eyes [FLAC]\11. The Best Thing For You.wav

Длина предзазора 0:00:00.18

Пиковый уровень 100.0 %
Скорость извлечения 2.1 X
Качество трека 100.0 %
CRC теста 365895CD
CRC копии 365895CD
Точное извлечение (достоверность 11) [91A06B81]
Копирование... OK

Трек 12

Имя файла C:\Users\Admin\Music\Diana Krall - дискография\1999 - When I Look In Your Eyes [FLAC]\12. Do It Again.wav

Длина предзазора 0:00:00.03

Пиковый уровень 100.0 %
Скорость извлечения 2.2 X
Качество трека 99.9 %
CRC теста CB23D300
CRC копии CB23D300
Точное извлечение (достоверность 11) [8D4B3661]
Копирование... OK

Трек 13

Имя файла C:\Users\Admin\Music\Diana Krall - дискография\1999 - When I Look In Your Eyes [FLAC]\13. Why Should I Care.wav

Длина предзазора 0:00:10.55

Пиковый уровень 100.0 %
Скорость извлечения 2.5 X
Качество трека 100.0 %
CRC теста EC67A990
CRC копии EC67A990
Точное извлечение (достоверность 11) [DFEBCE7F]
Копирование... OK


Все треки извлечены точно

Ошибок не произошло

Конец отчёта
[свернуть]

Файл CUE

REM GENRE Jazz
REM DATE 1999
REM DISCID 960CCA0D
REM COMMENT "ExactAudioCopy v1.0b1"
PERFORMER "Diana Krall"
TITLE "When I Look In Your Eyes"
FILE "01. Let's Face The Music And Dance.wav" WAVE
TRACK 01 AUDIO
TITLE "Let's Face The Music And Dance"
PERFORMER "Diana Krall"
PREGAP 00:00:33
INDEX 01 00:00:00
TRACK 02 AUDIO
TITLE "Devil May Care"
PERFORMER "Diana Krall"
INDEX 00 05:18:14
FILE "02. Devil May Care.wav" WAVE
INDEX 01 00:00:00
TRACK 03 AUDIO
TITLE "Let's Fall In Love"
PERFORMER "Diana Krall"
INDEX 00 03:20:05
FILE "03. Let's Fall In Love.wav" WAVE
INDEX 01 00:00:00
TRACK 04 AUDIO
TITLE "When I Look In Your Eyes"
PERFORMER "Diana Krall"
INDEX 00 04:18:72
FILE "04. When I Look In Your Eyes.wav" WAVE
INDEX 01 00:00:00
TRACK 05 AUDIO
TITLE "Popsicle Toes"
PERFORMER "Diana Krall"
INDEX 00 04:31:33
FILE "05. Popsicle Toes.wav" WAVE
INDEX 01 00:00:00
TRACK 06 AUDIO
TITLE "I've Got You Under My Skin"
PERFORMER "Diana Krall"
INDEX 00 04:27:64
FILE "06. I've Got You Under My Skin.wav" WAVE
INDEX 01 00:00:00
TRACK 07 AUDIO
TITLE "I Can't Give You Anything But Love"
PERFORMER "Diana Krall"
INDEX 00 06:10:32
FILE "07. I Can't Give You Anything But Love.wav" WAVE
INDEX 01 00:00:00
TRACK 08 AUDIO
TITLE "I'll String Along With You"
PERFORMER "Diana Krall"
INDEX 00 02:33:00
FILE "08. I'll String Along With You.wav" WAVE
INDEX 01 00:00:00
TRACK 09 AUDIO
TITLE "East Of The Sun (And West Of The Moon)"
PERFORMER "Diana Krall"
INDEX 00 04:45:07
FILE "09. East Of The Sun (And West Of The Moon).wav" WAVE
INDEX 01 00:00:00
TRACK 10 AUDIO
TITLE "Pick Yourself Up"
PERFORMER "Diana Krall"
INDEX 00 04:56:35
FILE "10. Pick Yourself Up.wav" WAVE
INDEX 01 00:00:00
TRACK 11 AUDIO
TITLE "The Best Thing For You"
PERFORMER "Diana Krall"
INDEX 00 03:01:50
FILE "11. The Best Thing For You.wav" WAVE
INDEX 01 00:00:00
TRACK 12 AUDIO
TITLE "Do It Again"
PERFORMER "Diana Krall"
INDEX 00 02:36:44
FILE "12. Do It Again.wav" WAVE
INDEX 01 00:00:00
TRACK 13 AUDIO
TITLE "Why Should I Care"
PERFORMER "Diana Krall"
INDEX 00 04:34:40
FILE "13. Why Should I Care.wav" WAVE
INDEX 01 00:00:00
[свернуть]

Лог проверки качества

AUDIOCHECKER v2.0 beta (build 457) - by Dester -
~~~~~~~~~~~~~~~~~~~~~~~~~~~~~~~~~~
-=== НЕ РЕДАКТИРУЙТЕ ЭТОТ ФАЙЛ! ===-

Путь: ...\1999 - When I Look In Your Eyes

01 -=- 01. Let's Face The Music And Dance.flac -=- CDDA (100%)
02 -=- 02. Devil May Care.flac -=- CDDA (100%)
03 -=- 03. Let's Fall In Love.flac -=- CDDA (100%)
04 -=- 04. When I Look In Your Eyes.flac -=- CDDA (100%)
05 -=- 05. Popsicle Toes.flac -=- CDDA (99%)
06 -=- 06. I've Got You Under My Skin.flac -=- CDDA (100%)
07 -=- 07. I Can't Give You Anything But Love.flac -=- CDDA (100%)
08 -=- 08. I'll String Along With You.flac -=- CDDA (100%)
09 -=- 09. East Of The Sun (And West Of The Moon).flac -=- CDDA (100%)
10 -=- 10. Pick Yourself Up.flac -=- CDDA (100%)
11 -=- 11. The Best Thing For You.flac -=- CDDA (100%)
12 -=- 12. Do It Again.flac -=- CDDA (100%)
13 -=- 13. Why Should I Care.flac -=- CDDA (100%)

Сводка 99,92% CDDA

77716020
[свернуть]

Скачать Diana Krall - When I Look In Your Eyes



password: sergych
[свернуть]
My opinion of release: 10/10
__________________
TAIFUN.Wings of Soul

Вверх
  #2
Старый 13.01.2016, 17:56
sergych
Координатор
Досье
 
Аватар для sergych
Релиз Re: Diana Krall - When I Look In Your Eyes


1999 - Diana Krall - When I Look In Your Eyes




Исполнитель/Artist: Diana Krall
Альбом/Album: When I Look In Your Eyes
Год/Year: 1999
Жанр/Genre: Jazz, Easy listening
Страна/Country: Соединённые Штаты
Рекорд-лейбл/Record label: Verve Music
Номер в каталоге/Catalogue #: IMPD-304
Формат/Format: Free Lossless Audio Codec (*.flac)
Качество/Quality: Lossless
Тип рипа/RIP Type: image+.cue
Продолжительность/Length: 00:54:35
Источник/Source: Собственный рип
Размер/Size: 363.1 MB

Сканы в комплекте

Треклист

01. Let's Face The Music And Dance [0:05:18.28]
02. Devil May Care [0:03:20.27]
03. Let's Fall In Love [0:04:19.18]
04. When I Look In Your Eyes [0:04:31.52]
05. Popsicle Toes [0:04:28.18]
06. I've Got You Under My Skin [0:06:10.60]
07. I Can't Give You Anything But Love [0:02:33.22]
08. I'll String Along With You [0:04:45.38]
09. East Of The Sun (And West Of The Moon) [0:04:56.60]
10. Pick Yourself Up [0:03:01.67]
11. The Best Thing For You [0:02:36.48]
12. Do It Again [0:04:45.20]
13. Why Should I Care [0:03:46.05]
[свернуть]

youtube.com

[свернуть]

Исполнители/Performers

Diana Krall - piano, vocals
Ben Wolfe, Chuck Berghofer, John Clayton - bass
Alan Broadbent - piano
Larry Bunker - vibraphone
Pete Christlieb - saxophone
Jeff Hamilton, Lewis Nash - drums
Russell Malone - guitar
Eddie Karam, Johnny Mandel - conductor
[свернуть]

EAC лог

Exact Audio Copy V1.1 from 23. June 2015

EAC extraction logfile from 11. January 2016, 1:56

Diana Krall / When I Look In Your Eyes

Used drive : ATAPI iHAS124 D Adapter: 0 ID: 2

Read mode : Secure
Utilize accurate stream : Yes
Defeat audio cache : Yes
Make use of C2 pointers : No

Read offset correction : 6
Overread into Lead-In and Lead-Out : No
Fill up missing offset samples with silence : Yes
Delete leading and trailing silent blocks : No
Null samples used in CRC calculations : Yes
Used interface : Installed external ASPI interface

Used output format : User Defined Encoder
Selected bitrate : 1024 kBit/s
Quality : High
Add ID3 tag : Yes
Command line compressor : C:\Program Files (x86)\Exact Audio Copy\Flac\flac.exe
Additional command line options : -6 -V -T "ARTIST=%artist%" -T "TITLE=%title%" -T "ALBUM=%albumtitle%" -T "DATE=%year%" -T "TRACKNUMBER=%tracknr%" -T "GENRE=%genre%" -T "COMMENT=%comment%" -T "BAND=%albuminterpret%" -T "COMPOSER=%composer%" %haslyrics%--tag-from-file=LYRICS="%lyricsfile%"%haslyrics% -T "DISCNUMBER=%cdnumber%" -T "TOTALDISCS=%totalcds%" -T "TOTALTRACKS=%numtracks%" %hascover%--picture="%coverfile%"%hascover% %source% -o %dest%


TOC of the extracted CD

Track | Start | Length | Start sector | End sector
---------------------------------------------------------
1 | 0:00.32 | 5:18.28 | 32 | 23909
2 | 5:18.60 | 3:20.27 | 23910 | 38936
3 | 8:39.12 | 4:19.18 | 38937 | 58379
4 | 12:58.30 | 4:31.52 | 58380 | 78756
5 | 17:30.07 | 4:28.18 | 78757 | 98874
6 | 21:58.25 | 6:10.60 | 98875 | 126684
7 | 28:09.10 | 2:33.22 | 126685 | 138181
8 | 30:42.32 | 4:45.38 | 138182 | 159594
9 | 35:27.70 | 4:56.60 | 159595 | 181854
10 | 40:24.55 | 3:01.67 | 181855 | 195496
11 | 43:26.47 | 2:36.48 | 195497 | 207244
12 | 46:03.20 | 4:45.20 | 207245 | 228639
13 | 50:48.40 | 3:46.05 | 228640 | 245594


Range status and errors

Selected range

Filename C:\mm\Diana Krall\1999 - When I Look In Your Eyes [IMPD-304]\Diana Krall - When I Look In Your Eyes.wav

Peak level 100.0 %
Extraction speed 8.7 X
Range quality 100.0 %
Test CRC 65078A25
Copy CRC 65078A25
Copy OK

No errors occurred


AccurateRip summary

Track 1 accurately ripped (confidence 200) [7EB6A2B0] (AR v2)
Track 2 accurately ripped (confidence 200) [EE61A860] (AR v2)
Track 3 accurately ripped (confidence 200) [4713FFFA] (AR v2)
Track 4 accurately ripped (confidence 200) [C0A5487A] (AR v2)
Track 5 accurately ripped (confidence 200) [87B00874] (AR v2)
Track 6 accurately ripped (confidence 200) [6FEF6D64] (AR v2)
Track 7 accurately ripped (confidence 200) [3C73B483] (AR v2)
Track 8 accurately ripped (confidence 200) [2C14505F] (AR v2)
Track 9 accurately ripped (confidence 200) [209B27BC] (AR v2)
Track 10 accurately ripped (confidence 200) [16D13DDA] (AR v2)
Track 11 accurately ripped (confidence 200) [BEE6AD37] (AR v2)
Track 12 accurately ripped (confidence 200) [54749F71] (AR v2)
Track 13 accurately ripped (confidence 200) [10690151] (AR v2)

All tracks accurately ripped

End of status report
[свернуть]

Файл CUE

REM GENRE Jazz
REM DATE 1999
REM DISCID 960CCA0D
REM COMMENT "ExactAudioCopy v1.1"
PERFORMER "Diana Krall"
TITLE "When I Look In Your Eyes"
FILE "Diana Krall - When I Look In Your Eyes.flac" WAVE
TRACK 01 AUDIO
TITLE "Let's Face The Music And Dance"
PERFORMER "Diana Krall"
INDEX 00 00:00:00
INDEX 01 00:00:32
TRACK 02 AUDIO
TITLE "Devil May Care"
PERFORMER "Diana Krall"
INDEX 00 05:18:47
INDEX 01 05:18:60
TRACK 03 AUDIO
TITLE "Let's Fall In Love"
PERFORMER "Diana Krall"
INDEX 00 08:38:65
INDEX 01 08:39:12
TRACK 04 AUDIO
TITLE "When I Look In Your Eyes"
PERFORMER "Diana Krall"
INDEX 00 12:58:10
INDEX 01 12:58:30
TRACK 05 AUDIO
TITLE "Popsicle Toes"
PERFORMER "Diana Krall"
INDEX 00 17:29:62
INDEX 01 17:30:07
TRACK 06 AUDIO
TITLE "I've Got You Under My Skin"
PERFORMER "Diana Krall"
INDEX 00 21:57:72
INDEX 01 21:58:25
TRACK 07 AUDIO
TITLE "I Can't Give You Anything But Love"
PERFORMER "Diana Krall"
INDEX 00 28:08:57
INDEX 01 28:09:10
TRACK 08 AUDIO
TITLE "I'll String Along With You"
PERFORMER "Diana Krall"
INDEX 00 30:42:10
INDEX 01 30:42:32
TRACK 09 AUDIO
TITLE "East Of The Sun (And West Of The Moon)"
PERFORMER "Diana Krall"
INDEX 00 35:27:40
INDEX 01 35:27:70
TRACK 10 AUDIO
TITLE "Pick Yourself Up"
PERFORMER "Diana Krall"
INDEX 00 40:24:30
INDEX 01 40:24:55
TRACK 11 AUDIO
TITLE "The Best Thing For You"
PERFORMER "Diana Krall"
INDEX 00 43:26:30
INDEX 01 43:26:47
TRACK 12 AUDIO
TITLE "Do It Again"
PERFORMER "Diana Krall"
INDEX 00 46:03:17
INDEX 01 46:03:20
TRACK 13 AUDIO
TITLE "Why Should I Care"
PERFORMER "Diana Krall"
INDEX 00 50:37:60
INDEX 01 50:48:40
[свернуть]

Лог проверки качества

AUDIOCHECKER v2.0 beta (build 457) - by Dester -
~~~~~~~~~~~~~~~~~~~~~~~~~~~~~~~~~~
-=== НЕ РЕДАКТИРУЙТЕ ЭТОТ ФАЙЛ! ===-

Путь: ...\1999 - When I Look In Your Eyes [IMPD-304]

1 -=- Diana Krall - When I Look In Your Eyes.flac -=- CDDA (99%)

110447476
[свернуть]

Спектр частот

[свернуть]

Скачать Diana Krall - When I Look In Your Eyes



password: sergych
[свернуть]
My opinion of release: 10/10
__________________
TAIFUN.Wings of Soul

Вверх
Пользователь сказал cпасибо:
Lighting1981 (03.09.2017)
Похожие темы
Тема Автор Раздел Ответов Последнее сообщение
Альбом Diana Krall - All for You: A Dedication to the Nat King Cole Trio sergych Jazz и Blues 1 11.04.2018 22:33
Альбом Diana Krall - Love Scenes sergych Jazz и Blues 0 24.09.2013 13:27
Альбом Diana Krall - Only Trust Your Heart sergych Jazz и Blues 0 23.09.2013 20:08
Альбом Diana Krall - Stepping Out sergych Jazz и Blues 0 23.09.2013 18:47
Релиз Diana Krall - Glad Rag Doll (Deluxe Edition) PUPOKIN Jazz и Blues 0 28.09.2012 09:34


Метки
1999 , contemporary jazz , diana krall , easy listening , jazz , smooth jazz , vocal jazz , when i look in your eyes

Опции темы

Ваши права в разделе
Вы не можете создавать новые темы
Вы не можете отвечать в темах
Вы не можете прикреплять вложения
Вы не можете редактировать свои сообщения

Быстрый переход



Текущее время: 18:48. Часовой пояс GMT +3.
Powered by vBulletin® Version 3.8.10
Copyright ©2000 - 2018, vBulletin Solutions, Inc. Перевод: zCarot
© 2008 - 2018 Taifun With Song
Яндекс.Метрика