TAIFUN With Song
Навигация
Jazz и Blues Гибкая ритмика, импровизационное начало, гармонии и мелодии - все это Jazz. Blues - жизнеутверждающая музыка, рожденная из душевной боли

А знаете ли Вы, что...
Каким образом проводятся бесшумные дискотеки?
«С 2000 года всё большую популярность набирают бесшумные дискотеки — особенно там, где после определённого часа действуют запреты на громкую музыку. Каждому их участнику выдаются специальные наушники, на которые транслируется аудиосигнал по беспроводной связи, то есть наблюдатель со стороны увидит только толпу танцующих в тишине людей. Часто в таком формате на одной площадке работают сразу несколько диджеев или исполняющих живую музыку групп, конкурирующих за внимание публики, наушники которой снабжены функцией переключения сигналов.»
 
Опции темы

  #1
Старый 23.09.2013, 20:08
sergych
Координатор
Досье
 
Аватар для sergych
Релиз Diana Krall - Only Trust Your Heart


1995 - Diana Krall - Only Trust Your Heart




Исполнитель/Artist: Diana Krall
Альбом/Album: Only Trust Your Heart
Год/Year: 1995
Жанр/Genre: Smooth Jazz, Contemporary Jazz
Страна/Country: Европа
Рекорд-лейбл/Record label: GRP Records
Номер в каталоге/Catalogue #: GRP 98102 / 011105981026
Формат/Format: Free Lossless Audio Codec (*.flac)
Качество/Quality: Lossless
Тип рипа/RIP Type: tracks+.cue
Продолжительность/Length: 00:46:55
Источник/Source: Из интернета
Размер/Size: 327.5 MB

Сканы в комплекте

Треклист

01 - Is You Is Or Is You Ain't My Baby
02 - Only Trust Your Heart
03 - I Love Being Here With You
04 - Broadway
05 - Folks Who Live On The Hill
06 - I've Got The World On A String
07 - Squeeze Me
08 - All Night Long
09 - CRS Craft
[свернуть]

youtube.com

[свернуть]

Исполнители/Performers

Diana Krall - piano, vocals
Ray Brown - Acoustic Bass
Christian McBride - Acoustic Bass
Lewis Nash - drums
Stanley Turrentine - tenor saxophone
[свернуть]

EAC лог

EAC extraction logfile from 20. July 2007, 17:11 for CD
Diana Krall / Only Trust Your Heart

Used drive : COMPAQ DVD-ROM LTD163 Adapter: 1 ID: 0
Read mode : Secure with NO C2, accurate stream, disable cache
Read offset correction : 594
Overread into Lead-In and Lead-Out : No

Used output format : C:\Program\FLAC\flac.exe (User Defined Encoder)
320 kBit/s
Additional command line options : -8 -V -T "ARTIST=%a" -T "TITLE=%t" -T "ALBUM=%g" -T "DATE=%y" -T "TRACKNUMBER=%n" -T "GENRE=%m" -T "COMMENT=EAC Flac 1.1.4 -8" %s

Other options :
Fill up missing offset samples with silence : Yes
Delete leading and trailing silent blocks : No
Installed external ASPI interface


Track 1
Filename H:\EACtemp\Diana Krall - Only Thrust Your Heart (1995) [FLAC]\01 - Is You Is Or Is You Ain't My Baby.wav

Pre-gap length 0:00:02.42

Peak level 100.0 %
Track quality 99.9 %
Test CRC F8E0DECE
Copy CRC F8E0DECE
Copy OK

Track 2
Filename H:\EACtemp\Diana Krall - Only Thrust Your Heart (1995) [FLAC]\02 - Only Trust Your Heart.wav

Peak level 95.8 %
Track quality 99.9 %
Test CRC 57B94F21
Copy CRC 57B94F21
Copy OK

Track 3
Filename H:\EACtemp\Diana Krall - Only Thrust Your Heart (1995) [FLAC]\03 - I Love Being Here With You.wav

Peak level 100.0 %
Track quality 100.0 %
Test CRC AD6A7C08
Copy CRC AD6A7C08
Copy OK

Track 4
Filename H:\EACtemp\Diana Krall - Only Thrust Your Heart (1995) [FLAC]\04 - Broadway.wav

Peak level 100.0 %
Track quality 100.0 %
Test CRC DAE5870A
Copy CRC DAE5870A
Copy OK

Track 5
Filename H:\EACtemp\Diana Krall - Only Thrust Your Heart (1995) [FLAC]\05 - Folks Who Live On The Hill.wav

Peak level 100.0 %
Track quality 100.0 %
Test CRC 0CA4B6FA
Copy CRC 0CA4B6FA
Copy OK

Track 6
Filename H:\EACtemp\Diana Krall - Only Thrust Your Heart (1995) [FLAC]\06 - I've Got The World On A String.wav

Pre-gap length 0:00:00.32

Peak level 100.0 %
Track quality 99.9 %
Test CRC 1DABAAD6
Copy CRC 1DABAAD6
Copy OK

Track 7
Filename H:\EACtemp\Diana Krall - Only Thrust Your Heart (1995) [FLAC]\07 - Squeeze Me.wav

Peak level 92.8 %
Track quality 100.0 %
Test CRC 7C23A841
Copy CRC 7C23A841
Copy OK

Track 8
Filename H:\EACtemp\Diana Krall - Only Thrust Your Heart (1995) [FLAC]\08 - All Night Long.wav

Peak level 100.0 %
Track quality 100.0 %
Test CRC E12C393B
Copy CRC E12C393B
Copy OK

Track 9
Filename H:\EACtemp\Diana Krall - Only Thrust Your Heart (1995) [FLAC]\09 - CRS Craft.wav

Peak level 100.0 %
Track quality 100.0 %
Test CRC F12EF8EB
Copy CRC F12EF8EB
Copy OK

No errors occured


End of status report
[свернуть]

Файл CUE

REM GENRE Jazz
REM DATE 1995
REM DISCID 880AFF09
REM COMMENT "ExactAudioCopy v0.95b3"
PERFORMER "Diana Krall"
TITLE "Only Trust Your Heart"
FILE "01 - Is You Is Or Is You Ain't My Baby.wav" WAVE
TRACK 01 AUDIO
TITLE "Is You Is Or Is You Ain't My Baby"
PERFORMER "Diana Krall"
PREGAP 00:00:32
INDEX 01 00:00:00
FILE "02 - Only Trust Your Heart.wav" WAVE
TRACK 02 AUDIO
TITLE "Only Trust Your Heart"
PERFORMER "Diana Krall"
INDEX 01 00:00:00
FILE "03 - I Love Being Here With You.wav" WAVE
TRACK 03 AUDIO
TITLE "I Love Being Here With You"
PERFORMER "Diana Krall"
INDEX 01 00:00:00
FILE "04 - Broadway.wav" WAVE
TRACK 04 AUDIO
TITLE "Broadway"
PERFORMER "Diana Krall"
INDEX 01 00:00:00
FILE "05 - Folks Who Live On The Hill.wav" WAVE
TRACK 05 AUDIO
TITLE "Folks Who Live On The Hill"
PERFORMER "Diana Krall"
INDEX 01 00:00:00
TRACK 06 AUDIO
TITLE "I've Got The World On A String"
PERFORMER "Diana Krall"
INDEX 00 04:19:11
FILE "06 - I've Got The World On A String.wav" WAVE
INDEX 01 00:00:00
FILE "07 - Squeeze Me.wav" WAVE
TRACK 07 AUDIO
TITLE "Squeeze Me"
PERFORMER "Diana Krall"
INDEX 01 00:00:00
FILE "08 - All Night Long.wav" WAVE
TRACK 08 AUDIO
TITLE "All Night Long"
PERFORMER "Diana Krall"
INDEX 01 00:00:00
FILE "09 - CRS Craft.wav" WAVE
TRACK 09 AUDIO
TITLE "CRS Craft"
PERFORMER "Diana Krall"
INDEX 01 00:00:00
[свернуть]

Лог проверки качества

AUDIOCHECKER v2.0 beta (build 457) - by Dester -
~~~~~~~~~~~~~~~~~~~~~~~~~~~~~~~~~~
-=== НЕ РЕДАКТИРУЙТЕ ЭТОТ ФАЙЛ! ===-

Путь: ...\1995 - Only Thrust Your Heart

1 -=- 01 - Is You Is Or Is You Ain't My Baby.flac -=- CDDA (100%)
2 -=- 02 - Only Trust Your Heart.flac -=- CDDA (100%)
3 -=- 03 - I Love Being Here With You.flac -=- CDDA (100%)
4 -=- 04 - Broadway.flac -=- CDDA (100%)
5 -=- 05 - Folks Who Live On The Hill.flac -=- CDDA (100%)
6 -=- 06 - I've Got The World On A String.flac -=- CDDA (100%)
7 -=- 07 - Squeeze Me.flac -=- CDDA (100%)
8 -=- 08 - All Night Long.flac -=- CDDA (100%)
9 -=- 09 - CRS Craft.flac -=- CDDA (100%)

Сводка 100,00% CDDA

112707892
[свернуть]

Скачать Diana Krall - Only Trust Your Heart



password: sergych
[свернуть]
My opinion of release: 10/10
__________________
TAIFUN.Wings of Soul

Вверх
Похожие темы
Тема Автор Раздел Ответов Последнее сообщение
Альбом Diana Krall - Stepping Out sergych Jazz и Blues 0 23.09.2013 18:47
Альбом David Sanborn - Heart to Heart sergych Jazz и Blues 0 13.10.2012 11:38
Релиз Diana Krall - Glad Rag Doll (Deluxe Edition) PUPOKIN Jazz и Blues 0 28.09.2012 09:34
Микс Diana Ross - Almighty Presents: We Love Diana Ross PUPOKIN Dance 1 07.01.2010 10:43
Альбом Diana Ross - I Love You sergych Зарубежная Поп-Музыка 0 14.06.2009 20:11


Метки
1995 , contemporary jazz , diana krall , only trust your heart , smooth jazz

Опции темы

Ваши права в разделе
Вы не можете создавать новые темы
Вы не можете отвечать в темах
Вы не можете прикреплять вложения
Вы не можете редактировать свои сообщения

Быстрый переход



Текущее время: 18:49. Часовой пояс GMT +3.
Powered by vBulletin® Version 3.8.10
Copyright ©2000 - 2018, vBulletin Solutions, Inc. Перевод: zCarot
© 2008 - 2018 Taifun With Song
Яндекс.Метрика