TAIFUN With Song
Навигация
Вернуться   TAIFUN With Song > Music (обменник) > Другие направления музыки > Jazz и Blues
Расширенный поиск
Jazz и Blues Гибкая ритмика, импровизационное начало, гармонии и мелодии - все это Jazz. Blues - жизнеутверждающая музыка, рожденная из душевной боли

А знаете ли Вы, что...
Для прослушивания какого альбома нужно иметь четыре аудиосистемы?
«Восьмой студийный альбом альтернативной группы The Flaming Lips под названием Zaireeka был выпущен на 4 CD. Особенность альбома в том, что каждая композиция разделена на четыре составляющих, и для того чтобы прослушать песни в полной версии, нужно включить одновременно все диски на четырёх разных аудиосистемах. Слушатели также могут экспериментировать, проигрывая не все диски сразу, а в любой комбинации из двух или трёх штук.»
 
Опции темы

  #1
Старый 06.06.2013, 17:39
aheron
Релизёр
Досье
 
Аватар для aheron
По умолчанию George Benson - Inspiration A Tribute To Nat King Cole


George Benson - Inspiration A Tribute To Nat King Cole (2013)





Исполнитель/Artist: George Benson
Альбом/Album: Inspiration A Tribute To Nat King Cole
Год/Year: 2013
Жанр/Genre: Smooth Jazz, Vocal Jazz
Страна/Country: USA
Рекорд-лейбл/Record label: Ⓟ & Ⓒ 2013 George Benson, Concord Records. Made in USA.
Номер в каталоге/Catalogue #: CRE-34268-02
Формат/Format: Free Lossless Audio Codec (*.flac)
Качество/Quality: Lossless
Тип рипа/RIP Type: image+.cue
Продолжительность/Length: 00:40:50
Источник/Source: Из интернета
Размер/Size: 324 MB

Сканы в комплекте


Треклист

01. George Benson - Mona Lisa (Lil' George Benson Age 8) [0:57]
02. George Benson - Just One Of Those Things [2:42]
03. George Benson - Unforgettable (Feat. Wynton Marsalis) [5:05]
04. George Benson - Walkin' My Baby Back Home [2:43]
05. George Benson - When I Fall In Love (Feat. Idina Menzel) [4:04]
06. George Benson - Route 66 [3:50]
07. George Benson - Nature Boy [2:40]
08. George Benson - Ballerina [2:46]
09. George Benson - Smile (Feat. Till Bronner) [3:22]
10. George Benson - Straighten Up And Fly Right [3:06]
11. George Benson - Too Young (Feat. Judith Hill) [3:28]
12. George Benson - I'm Gonna Sit Down And Write Myself A Letter [3:05]
13. George Benson - Mona Lisa [3:02]
----------------------------------------
Total time: [40:50]
[свернуть]

EAC лог

Exact Audio Copy V0.99 prebeta 5 from 4. May 2009

Отчёт EAC об извлечении, выполненном 4. июня 2013, 20:54

George Benson / Inspiration, A Tribute To Nat King Cole

Дисковод: PLEXTOR DVDR PX-880SA Adapter: 1 ID: 0

Режим чтения : Достоверность
Использование точного потока : Да
Отключение кэша аудио : Да
Использование указателей C2 : Нет

Коррекция смещения при чтении : 6
Способность читать области Lead-in и Lead-out : Нет
Заполнение пропущенных сэмплов тишиной : Да
Удаление блоков с тишиной в начале и конце : Нет
При вычислениях CRC использовались нулевые сэмплы : Да
Интерфейс : Установленный внешний ASPI-интерфейс

Выходной формат : Пользовательский кодировщик
Выбранный битрейт : 1024 kBit/s
Качество : Высокий
Добавление ID3-тэга : Нет
Утилита сжатия : C:\Program Files\Exact Audio Copy\FLAC\FLAC.EXE
Дополнительные параметры : -10 -V -T "ARTIST=%a" -T "TITLE=%t" -T "ALBUM=%g" -T "DATE=%y" -T "TRACKNUMBER=%n" -T "GENRE=%m" -T "COMMENT=%e" %s -o %d


TOC извлечённого CD

Трек | Старт | Длительность | Начальный сектор | Конечный сектор
---------------------------------------------------------------------
1 | 0:00.00 | 0:57.00 | 0 | 4274
2 | 0:57.00 | 2:42.06 | 4275 | 16430
3 | 3:39.06 | 5:05.27 | 16431 | 39332
4 | 8:44.33 | 2:43.18 | 39333 | 51575
5 | 11:27.51 | 4:03.59 | 51576 | 69859
6 | 15:31.35 | 3:50.01 | 69860 | 87110
7 | 19:21.36 | 2:39.72 | 87111 | 99107
8 | 22:01.33 | 2:46.05 | 99108 | 111562
9 | 24:47.38 | 3:22.28 | 111563 | 126740
10 | 28:09.66 | 3:05.50 | 126741 | 140665
11 | 31:15.41 | 3:27.70 | 140666 | 156260
12 | 34:43.36 | 3:04.60 | 156261 | 170120
13 | 37:48.21 | 3:02.22 | 170121 | 183792


Характеристики диапазона извлечения и сообщения об ошибках

Выбранный диапазон

Имя файла D:\BitComet\George Benson - Inspiration a Tribute to Nat King Cole(2013)(flac)\George Benson - Inspiration, A Tribute To Nat King Cole.wav

Пиковый уровень 100.0 %
Качество диапазона 100.0 %
CRC теста 9970C7BC
CRC копии 9970C7BC
Копирование... OK

Ошибок не произошло


AccurateRip: сводка

Трек 1 нет в базе данных
Трек 2 нет в базе данных
Трек 3 нет в базе данных
Трек 4 нет в базе данных
Трек 5 нет в базе данных
Трек 6 нет в базе данных
Трек 7 нет в базе данных
Трек 8 нет в базе данных
Трек 9 нет в базе данных
Трек 10 нет в базе данных
Трек 11 нет в базе данных
Трек 12 нет в базе данных
Трек 13 нет в базе данных

Ни одного трека нет в базе AccurateRip

Конец отчёта
[свернуть]

Лог проверки качества

-----------------------

DON'T MODIFY THIS FILE

-----------------------

PERFORMER: auCDtect Task Manager, ver. 1.6.0 RC1 build 1.6.0.1
Copyright (c) 2008-2010 y-soft. All rights reserved


ANALYZER: auCDtect: CD records authenticity detector, version 0.8.2
Copyright (c) 2004 Oleg Berngardt. All rights reserved.
Copyright (c) 2004 Alexander Djourik. All rights reserved.


FILE: George Benson - Inspiration, A Tribute To Nat King Cole.flac
Size: 281591173 Hash: 53DBCD2BC230183230601E4F47170D93 Accuracy: -m0
Conclusion: CDDA 100%
Signature: 0EB862B00731CB54E1165E179628F93DB8BEA48B
[свернуть]

Спектр частот

[свернуть]

Скачать George Benson - Inspiration A Tribute To Nat King Cole

Яндекс.Диск

password: aheron
[свернуть]

Вверх
Пользователь сказал cпасибо:
sergych (07.06.2013)
Похожие темы
Тема Автор Раздел Ответов Последнее сообщение
Сборник Nat King Cole & Dean Martin - Christmas With Nat & Dean sergych Jazz и Blues 0 14.05.2013 20:42
Релиз J. Cole - Cole World: The Sideline Story PUPOKIN Зарубежный 0 07.10.2011 09:25
Альбом George Benson & Al Jarreau - Givin' It Up PUPOKIN Jazz и Blues 0 13.07.2010 09:27
Альбом Jimmy King & The King James Version Band - Soldier for the Blues PUPOKIN Jazz и Blues 0 21.06.2009 11:59
Релиз Tribute to Steel - A Tribute to Warlock PUPOKIN Heavy Metal 0 30.01.2009 10:29


Метки
2013 , george benson , inspiration a tribute to nat king cole , smooth jazz , vocal jazz

Опции темы

Ваши права в разделе
Вы не можете создавать новые темы
Вы не можете отвечать в темах
Вы не можете прикреплять вложения
Вы не можете редактировать свои сообщения

Быстрый переход



Текущее время: 18:49. Часовой пояс GMT +3.
Powered by vBulletin® Version 3.8.10
Copyright ©2000 - 2018, vBulletin Solutions, Inc. Перевод: zCarot
© 2008 - 2018 Taifun With Song
Яндекс.Метрика