TAIFUN With Song
Навигация
Вернуться   TAIFUN With Song > Music (обменник) > Другие направления музыки > Classical
Расширенный поиск
Classical В этом разделе релизы на классическую музыку.

А знаете ли Вы, что...
Кто написал чёрный квадрат за четверть века до Малевича?
«Французский писатель и юморист Альфонс Алле за четверть века до Казимира Малевича написал чёрный квадрат — картину под названием «Битва негров в пещере глубокой ночью». Также он почти на семьдесят лет предвосхитил минималистическую музыкальную пьесу из одной тишины «4’33"» Джона Кейджа своим аналогичным произведением «Траурный марш для похорон великого глухого».»
 
Опции темы

  #1
Старый 28.12.2010, 00:17
TAIFUN
Admin
Досье
 
Аватар для TAIFUN
По умолчанию Giuseppe Fortunino Francesco Verdi - Messa da Requiem [2007]

2007 - Джузеппе Верди - Траурная месса (Стратсбургский филармонический оркестр, Словацкий филармонический хор)



Композитор/Composer: Giuseppe Fortunino Francesco Verdi
Исполнитель/Artist: Стратсбургский филармонический оркестр, Словацкий филармонический хор
Альбом/Album: Траурная месса
Год/Year: 2007
Издатель/Label: Одиссей | [Украина]
Жанр/Genre: Classical
Формат/Format: FLAC
Качество/Quality: lossless
Тип рипа/RIP Type: image + .cue
Размер/Size: 269 MB
Продолжительность/Length: 01:04:33

сканы в комплекте

Треклист


Внимание! Издатель диска допустил ошибку в треклисте относительно композиций 4-9, поэтому данный правильный треклист не совпадает с треклистом, который изображен на обложке.
01. Requiem [13:12]
02. Dies Irae [02:06]
03. Tuba Mirum [03:14]
04. Ingemisco [04:01]
05. Confutatis Maledictis [06:05]
06. Lacrymosa [07:32]
07. Offertorio [11:40]
08. Sanctus [02:39]
09. Libera Me [13:48]
[свернуть]

EAC лог

Exact Audio Copy V1.0 beta 1 from 15. November 2010
EAC extraction logfile from 16. December 2010, 19:39
Verdi / Requiem
Used drive : HL-DT-STDVDRAM GSA-T10N Adapter: 1 ID: 1
Read mode : Secure
Utilize accurate stream : Yes
Defeat audio cache : Yes
Make use of C2 pointers : No
Read offset correction : 667
Overread into Lead-In and Lead-Out : No
Fill up missing offset samples with silence : Yes
Delete leading and trailing silent blocks : No
Null samples used in CRC calculations : Yes
Used interface : Installed external ASPI interface
Used output format : Internal WAV Routines
Sample format : 44.100 Hz; 16 Bit; Stereo
TOC of the extracted CD
Track | Start | Length | Start sector | End sector
---------------------------------------------------------
1 | 0:00.00 | 13:12.72 | 0 | 59471
2 | 13:12.72 | 2:06.08 | 59472 | 68929
3 | 15:19.05 | 3:17.30 | 68930 | 83734
4 | 18:36.35 | 4:00.57 | 83735 | 101791
5 | 22:37.17 | 6:06.48 | 101792 | 129289
6 | 28:43.65 | 7:35.15 | 129290 | 163429
7 | 36:19.05 | 11:44.00 | 163430 | 216229
8 | 48:03.05 | 2:41.50 | 216230 | 228354
9 | 50:44.55 | 13:48.62 | 228355 | 290516
Range status and errors
Selected range
Filename F:\Sergio Bambaren\Музыка\CLASSICAL\Джузеппе Верди\Траурная месса\Verdi - Requiem.wav
Peak level 83.8 %
Extraction speed 0.9 X
Range quality 99.9 %
Copy CRC 4E79F0EE
Copy OK
No errors occurred
End of status report
[свернуть]

CDDA Tau Analyzer

[свернуть]

Спектр частот

[свернуть]

Frequency

[свернуть]

Скачать Джузеппе Верди - Траурная месса

narod.ru

[свернуть]


Исполнители

My opinion of release: 9/10
__________________
I love the music
FAQ по форуму
Правила форума
Жизнь человека - это не самое главное в его жизни...


Последний раз редактировалось TAIFUN, 28.12.2010 в 01:51.
Вверх
Пользователь сказал cпасибо:
sergych (28.12.2010)
Похожие темы
Тема Автор Раздел Ответов Последнее сообщение
Саундтрек Requiem For A Dream / Реквием по мечте PUPOKIN Саундтреки 0 06.02.2009 09:59
Альбом Puteraeon - The Requiem [demo] ReAl Death Metal 0 07.12.2008 15:34
Bathory - Requiem ReAl Black Metal 0 18.08.2008 19:33
Requiem Laus - The Eternal Plague ReAl Death Metal 0 10.06.2008 13:55
Dlo & Francesco Assenza - Was Berlin / Corn DarkDan Techno 0 10.05.2008 10:01


Опции темы

Ваши права в разделе
Вы не можете создавать новые темы
Вы не можете отвечать в темах
Вы не можете прикреплять вложения
Вы не можете редактировать свои сообщения

Быстрый переход



Текущее время: 22:26. Часовой пояс GMT +3.
Powered by vBulletin® Version 3.8.10
Copyright ©2000 - 2018, vBulletin Solutions, Inc. Перевод: zCarot
© 2008 - 2018 Taifun With Song
Яндекс.Метрика