TAIFUN With Song
Навигация
Вернуться   TAIFUN With Song > Music (обменник) > Club & Electronic Music > Disco
Расширенный поиск
Disco Один из самых популярных танцевальных музыкальных стилей 70-х годов. Цель этой музыки была одна: любыми способами заставить людей выйти на танцплощадку, поэтому Disco преуспело главным образом как студийное творчество, увековеченное на пластинках, а далеко не как живые концертные шоу. Почти для всех произведений Disco характерен монотонный акцентированный ритм, фоновое звучание ведущих инструментов группы или оркестра (гитары, струнные, духовые) и достаточно выразительный вокал.

А знаете ли Вы, что...
Какой император наказывал офицеров прослушиванием оперы?
«Император Николай I не любил музыку и в качестве наказания для офицеров предоставлял им выбор между гауптвахтой и прослушиванием опер Глинки.»
 
Опции темы

  #1
Старый 25.05.2008, 12:04
sergych
Координатор
Досье
 
Аватар для sergych
Релиз Donna Summer - Another Place And Time


1989 - Donna Summer - Another Place And Time




Исполнитель/Artist: Donna Summer
Альбом/Album: Another Place And Time
Год/Year: 1989
Жанр/Genre: disco, eurodance, europop
Страна/Country: Соединённые Штаты
Рекорд-лейбл/Record label: Atlantic
Номер в каталоге/Catalogue #: 7 81987-2
Формат/Format: MPEG Layer-3 (*.mp3)
Качество/Quality: CBR 320 kbps
Тип рипа/RIP Type: image+.cue
Продолжительность/Length: 00:37:36
Источник/Source: Собственный рип
Размер/Size: 117.5 MB

Сканы в комплекте

Треклист

01. I Don't Wanna Get Hurt [0:03:28.65]
02. When Love Takes Over You [0:04:13.23]
03. This Time I Know It's For Real [0:03:38.72]
04. The Only One [0:03:55.00]
05. In Another Place And Time [0:03:22.65]
06. Sentimental [0:03:11.00]
07. Whatever Your Heart Desires [0:03:52.73]
08. Breakaway [0:04:04.07]
09. If It Makes You Feel Good [0:03:45.15]
10. Love's About To Change My Heart [0:04:03.40]
[свернуть]

youtube.com

[свернуть]

Исполнители/Performers

Donna Summer - vocals
Dee Lewis, Matt Aitken and Mae McKenna - backing vocals
Mike Stock, Matt Aitken and George De Angelis - keyboards
Matt Aitken - guitar
A. Linn - drums
[свернуть]

Скачать Donna Summer - Another Place And Time



password: sergych
[свернуть]

Контрольная сумма (хеш-сумма) архива

MD5: c1c000dbbe25d091e05298cee2c41178
[свернуть]
My opinion of release: 10/10

Release info RInfo

мало того, что диск добирался почти 2 месяца (при том, что другой диск оттуда же "добежал" за 3 недели), так ещё и неприятная царапка на первом треке...
Так что, только mp3, увы.
__________________
TAIFUN.Wings of Soul


Последний раз редактировалось sergych, 13.01.2018 в 00:49. Причина: перезаливка нового рипа и переоформление темы
Вверх
3 пользователя(ей) сказали cпасибо:
Показать список поблагодаривших
  #2
Старый 13.01.2018, 00:50
sergych
Координатор
Досье
 
Аватар для sergych
По умолчанию Re: Donna Summer - Another Place And Time

перезаливка нового рипа и переоформление темы
__________________
TAIFUN.Wings of Soul

Вверх
2 пользователя(ей) сказали cпасибо:
swint68 (15.01.2018), TAIFUN (25.03.2018)
  #3
Старый 24.03.2018, 14:55
sergych
Координатор
Досье
 
Аватар для sergych
Релиз Re: Donna Summer - Another Place And Time


1989 - Donna Summer - Another Place And Time




Исполнитель/Artist: Donna Summer - Another Place And Time
Альбом/Album: Another Place And Time
Год/Year: 1989
Жанр/Genre: disco, eurodance, europop
Страна/Country: Соединённые Штаты
Рекорд-лейбл/Record label: Atlantic
Номер в каталоге/Catalogue #: 7 81987-2
Формат/Format: Free Lossless Audio Codec (*.flac)
Качество/Quality: Lossless
Тип рипа/RIP Type: image+.cue
Продолжительность/Length: 00:37:36
Источник/Source: Собственный рип
Размер/Size: 288.1 MB

Сканы в комплекте

Треклист

01. I Don't Wanna Get Hurt [0:03:28.65]
02. When Love Takes Over You [0:04:13.23]
03. This Time I Know It's For Real [0:03:38.72]
04. The Only One [0:03:55.00]
05. In Another Place And Time [0:03:22.65]
06. Sentimental [0:03:11.00]
07. Whatever Your Heart Desires [0:03:52.73]
08. Breakaway [0:04:04.07]
09. If It Makes You Feel Good [0:03:45.15]
10. Love's About To Change My Heart [0:04:03.40]
[свернуть]

youtube.com

[свернуть]

Исполнители/Performers

Donna Summer - vocals
Dee Lewis, Matt Aitken and Mae McKenna - backing vocals
Mike Stock, Matt Aitken and George De Angelis - keyboards
Matt Aitken - guitar
A. Linn - drums
[свернуть]

EAC лог

Exact Audio Copy V1.3 from 2. September 2016

EAC extraction logfile from 24. March 2018, 9:58

Donna Summer / Another Place And Time

Used drive : ATAPI iHAS124 D Adapter: 0 ID: 2

Read mode : Secure
Utilize accurate stream : Yes
Defeat audio cache : Yes
Make use of C2 pointers : No

Read offset correction : 6
Overread into Lead-In and Lead-Out : No
Fill up missing offset samples with silence : Yes
Delete leading and trailing silent blocks : No
Null samples used in CRC calculations : Yes
Used interface : Installed external ASPI interface

Used output format : User Defined Encoder
Selected bitrate : 1024 kBit/s
Quality : High
Add ID3 tag : No
Command line compressor : C:\Program Files (x86)\Exact Audio Copy\Flac\flac.exe
Additional command line options : -6 -V -T "ARTIST=%artist%" -T "TITLE=%title%" -T "ALBUM=%albumtitle%" -T "DATE=%year%" -T "TRACKNUMBER=%tracknr%" -T "GENRE=%genre%" -T "COMMENT=%comment%" -T "BAND=%albuminterpret%" -T "ALBUMARTIST=%albuminterpret%" -T "COMPOSER=%composer%" %haslyrics%--tag-from-file=LYRICS="%lyricsfile%"%haslyrics% -T "DISCNUMBER=%cdnumber%" -T "TOTALDISCS=%totalcds%" -T "TOTALTRACKS=%numtracks%" %hascover%--picture="%coverfile%"%hascover% %source% -o %dest%


TOC of the extracted CD

Track | Start | Length | Start sector | End sector
---------------------------------------------------------
1 | 0:00.32 | 3:28.65 | 32 | 15696
2 | 3:29.22 | 4:13.23 | 15697 | 34694
3 | 7:42.45 | 3:38.72 | 34695 | 51116
4 | 11:21.42 | 3:55.00 | 51117 | 68741
5 | 15:16.42 | 3:22.65 | 68742 | 83956
6 | 18:39.32 | 3:11.00 | 83957 | 98281
7 | 21:50.32 | 3:52.73 | 98282 | 115754
8 | 25:43.30 | 4:04.07 | 115755 | 134061
9 | 29:47.37 | 3:45.15 | 134062 | 150951
10 | 33:32.52 | 4:03.40 | 150952 | 169216


Range status and errors

Selected range

Filename C:\mm\Donna Summer\1989 - Another Place And Time [7 81987-2]\Donna Summer - Another Place And Time.wav

Peak level 94.9 %
Extraction speed 1.6 X
Range quality 100.0 %
Test CRC B81760D2
Copy CRC B81760D2
Copy OK

No errors occurred

End of status report

---- CUETools DB Plugin V2.1.6

[CTDB TOCID: 0nHW0QVsRs8P.QkrNGVYQQPFNHs-] found
Submit result: 0nHW0QVsRs8P.QkrNGVYQQPFNHs- has been confirmed
Track | CTDB Status
1 | (42/45) Accurately ripped
2 | (42/45) Accurately ripped
3 | (45/45) Accurately ripped
4 | (44/45) Accurately ripped
5 | (44/45) Accurately ripped
6 | (44/45) Accurately ripped
7 | (44/45) Accurately ripped
8 | (45/45) Accurately ripped
9 | (44/45) Accurately ripped
10 | (43/45) Accurately ripped
[свернуть]

Файл CUE

REM GENRE R&B
REM DATE 1989
REM DISCID 7208D00A
REM COMMENT "ExactAudioCopy v1.3"
PERFORMER "Donna Summer"
TITLE "Another Place And Time"
REM COMPOSER ""
FILE "Donna Summer - Another Place And Time.flac" WAVE
TRACK 01 AUDIO
TITLE "I Don't Wanna Get Hurt"
PERFORMER "Donna Summer"
REM COMPOSER ""
INDEX 00 00:00:00
INDEX 01 00:00:32
TRACK 02 AUDIO
TITLE "When Love Takes Over You"
PERFORMER "Donna Summer"
REM COMPOSER ""
INDEX 00 03:28:00
INDEX 01 03:29:22
TRACK 03 AUDIO
TITLE "This Time I Know It's For Real"
PERFORMER "Donna Summer"
REM COMPOSER ""
INDEX 00 07:41:30
INDEX 01 07:42:45
TRACK 04 AUDIO
TITLE "The Only One"
PERFORMER "Donna Summer"
REM COMPOSER ""
INDEX 00 11:19:52
INDEX 01 11:21:42
TRACK 05 AUDIO
TITLE "In Another Place And Time"
PERFORMER "Donna Summer"
REM COMPOSER ""
INDEX 00 15:15:57
INDEX 01 15:16:42
TRACK 06 AUDIO
TITLE "Sentimental"
PERFORMER "Donna Summer"
REM COMPOSER ""
INDEX 00 18:38:05
INDEX 01 18:39:32
TRACK 07 AUDIO
TITLE "Whatever Your Heart Desires"
PERFORMER "Donna Summer"
REM COMPOSER ""
INDEX 00 21:50:15
INDEX 01 21:50:32
TRACK 08 AUDIO
TITLE "Breakaway"
PERFORMER "Donna Summer"
REM COMPOSER ""
INDEX 00 25:43:02
INDEX 01 25:43:30
TRACK 09 AUDIO
TITLE "If It Makes You Feel Good"
PERFORMER "Donna Summer"
REM COMPOSER ""
INDEX 00 29:45:62
INDEX 01 29:47:37
TRACK 10 AUDIO
TITLE "Love's About To Change My Heart"
PERFORMER "Donna Summer"
REM COMPOSER ""
INDEX 01 33:32:52
[свернуть]

Лог проверки качества

AUDIOCHECKER v2.0 beta (build 457) - by Dester -
~~~~~~~~~~~~~~~~~~~~~~~~~~~~~~~~~~
-=== НЕ РЕДАКТИРУЙТЕ ЭТОТ ФАЙЛ! ===-

Путь: ...\1989 - Another Place And Time [7 81987-2]

1 -=- Donna Summer - Another Place And Time.flac -=- MPEG (85%)

187842468
[свернуть]

Спектр частот

[свернуть]

Скачать Donna Summer - Another Place And Time



password: sergych
[свернуть]

Контрольная сумма (хеш-сумма) архива

MD5: 2bf991454659e4411e205343a06e1b10
[свернуть]
My opinion of release: 10/10
__________________
TAIFUN.Wings of Soul

Вверх
3 пользователя(ей) сказали cпасибо:
Показать список поблагодаривших
Похожие темы
Тема Автор Раздел Ответов Последнее сообщение
Сборник Donna Summer - The Donna Summer Anthology sergych Disco 11 21.05.2017 20:48
Сборник Donna Summer - This Time I Know It's For Real sergych Dance 0 06.11.2015 19:24
Сборник Donna Summer - The Best Of Donna Summer {20th Century Masters. The Millennium Collection} sergych Disco 0 01.11.2015 14:37
Donna Summer - The Journey: The Very Best of Donna Summer sergych Disco 0 13.07.2008 14:37
Альбом Donna Summer - Once Upon A Time.. sergych Disco 0 03.05.2008 19:56


Метки
1989 , another place and time , disco , donna summer , eurodance , europop

Опции темы

Ваши права в разделе
Вы не можете создавать новые темы
Вы не можете отвечать в темах
Вы не можете прикреплять вложения
Вы не можете редактировать свои сообщения

Быстрый переход



Текущее время: 03:56. Часовой пояс GMT +3.
Powered by vBulletin® Version 3.8.10
Copyright ©2000 - 2018, vBulletin Solutions, Inc. Перевод: zCarot
© 2008 - 2018 Taifun With Song
Яндекс.Метрика