TAIFUN With Song
Навигация
Jazz и Blues Гибкая ритмика, импровизационное начало, гармонии и мелодии - все это Jazz. Blues - жизнеутверждающая музыка, рожденная из душевной боли

А знаете ли Вы, что...
Какой музыкальный инструмент извлекает звуки из сталактитов одной американской пещеры?
«В американском штате Вирджиния находятся Лурейские пещеры, где установлен уникальный музыкальный инструмент — орган из сталактитов. 37 разных по тону сталактитов подключены к трубочной системе традиционного органа и управляются с обычной органной клавиатуры.»
 
Опции темы

  #1
Старый 07.02.2018, 00:43
sergych
Координатор
Досье
 
Аватар для sergych
Релиз Harry Connick, Jr. - We Are In Love


1990 - Harry Connick, Jr. - We Are In Love




Исполнитель/Artist: Harry Connick, Jr.
Альбом/Album: We Are In Love
Год/Year: 1990
Жанр/Genre: Jazz, Big Band
Страна/Country: Австрия
Рекорд-лейбл/Record label: Sony Music
Номер в каталоге/Catalogue #: 466736 2
Формат/Format: Free Lossless Audio Codec (*.flac)
Качество/Quality: Lossless
Тип рипа/RIP Type: image+.cue
Продолжительность/Length: 00:52:49
Источник/Source: Собственный рип
Размер/Size: 309.7 MB

Сканы в комплекте

Треклист

01. We Are In Love [0:02:44.50]
02. Only 'Cause I Don't Have You [0:04:26.12]
03. Recipe For Love [0:02:38.03]
04. Drifting [0:05:19.05]
05. Forever, For Now [0:04:25.02]
06. A Nightingale Sang In Berkeley Square [0:05:13.08]
07. Heavenly [0:02:02.57]
08. Just A Boy [0:06:09.53]
09. I've Got A Great Idea [0:04:24.62]
10. I'll Dream Of You Again [0:03:34.70]
11. It's Alright With Me [0:04:55.30]
12. Buried In Blue [0:06:55.43]
[свернуть]

youtube.com

[свернуть]

Исполнители/Performers

Harry Connick Jr. – Piano, vocals
Branford Marsalis – Tenor Sax, Soprano Sax
Russell Malone – Guitar
Benjamin Jonah Wolfe – Bass
Shannon Powell – drums
[свернуть]

EAC лог

Exact Audio Copy V1.3 from 2. September 2016

EAC extraction logfile from 5. February 2018, 20:01

Harry Connick, Jr. / We Are In Love

Used drive : ATAPI iHAS124 D Adapter: 0 ID: 2

Read mode : Secure
Utilize accurate stream : Yes
Defeat audio cache : Yes
Make use of C2 pointers : No

Read offset correction : 0
Overread into Lead-In and Lead-Out : No
Fill up missing offset samples with silence : Yes
Delete leading and trailing silent blocks : No
Null samples used in CRC calculations : Yes
Used interface : Installed external ASPI interface

Used output format : User Defined Encoder
Selected bitrate : 1024 kBit/s
Quality : High
Add ID3 tag : No
Command line compressor : C:\Program Files (x86)\Exact Audio Copy\Flac\flac.exe
Additional command line options : -6 -V -T "ARTIST=%artist%" -T "TITLE=%title%" -T "ALBUM=%albumtitle%" -T "DATE=%year%" -T "TRACKNUMBER=%tracknr%" -T "GENRE=%genre%" -T "COMMENT=%comment%" -T "BAND=%albuminterpret%" -T "ALBUMARTIST=%albuminterpret%" -T "COMPOSER=%composer%" %haslyrics%--tag-from-file=LYRICS="%lyricsfile%"%haslyrics% -T "DISCNUMBER=%cdnumber%" -T "TOTALDISCS=%totalcds%" -T "TOTALTRACKS=%numtracks%" %hascover%--picture="%coverfile%"%hascover% %source% -o %dest%


TOC of the extracted CD

Track | Start | Length | Start sector | End sector
---------------------------------------------------------
1 | 0:00.00 | 2:44.50 | 0 | 12349
2 | 2:44.50 | 4:26.12 | 12350 | 32311
3 | 7:10.62 | 2:38.03 | 32312 | 44164
4 | 9:48.65 | 5:19.05 | 44165 | 68094
5 | 15:07.70 | 4:25.02 | 68095 | 87971
6 | 19:32.72 | 5:13.08 | 87972 | 111454
7 | 24:46.05 | 2:02.57 | 111455 | 120661
8 | 26:48.62 | 6:09.53 | 120662 | 148389
9 | 32:58.40 | 4:24.62 | 148390 | 168251
10 | 37:23.27 | 3:34.70 | 168252 | 184371
11 | 40:58.22 | 4:55.30 | 184372 | 206526
12 | 45:53.52 | 6:55.43 | 206527 | 237694


Range status and errors

Selected range

Filename C:\mm\Harry Connick, Jr\1990 - We Are In Love [466736 2]\Harry Connick, Jr. - We Are In Love.wav

Peak level 100.0 %
Extraction speed 1.7 X
Range quality 99.9 %
Test CRC EC62A81F
Copy CRC EC62A81F
Copy OK

No errors occurred

End of status report

---- CUETools DB Plugin V2.1.6

[CTDB TOCID: d2Awxh0XAX_EyRJQd1xR06s3aVo-] found
Submit result: d2Awxh0XAX_EyRJQd1xR06s3aVo- has been confirmed
Track | CTDB Status
1 | (145/145) Accurately ripped
2 | (145/145) Accurately ripped
3 | (145/145) Accurately ripped
4 | (144/145) Accurately ripped
5 | (144/145) Accurately ripped
6 | (144/145) Accurately ripped
7 | (144/145) Accurately ripped
8 | (145/145) Accurately ripped
9 | (143/145) Accurately ripped
10 | (144/145) Accurately ripped
11 | (145/145) Accurately ripped
12 | (139/145) Accurately ripped
[свернуть]

Файл CUE

REM GENRE Jazz
REM DATE 1990
REM DISCID A00C610C
REM COMMENT "ExactAudioCopy v1.3"
PERFORMER "Harry Connick, Jr."
TITLE "We Are In Love"
REM COMPOSER ""
FILE "Harry Connick, Jr. - We Are In Love.flac" WAVE
TRACK 01 AUDIO
TITLE "We Are In Love"
PERFORMER "Harry Connick, Jr."
REM COMPOSER ""
INDEX 01 00:00:00
TRACK 02 AUDIO
TITLE "Only 'Cause I Don't Have You"
PERFORMER "Harry Connick, Jr."
REM COMPOSER ""
INDEX 00 02:42:20
INDEX 01 02:44:50
TRACK 03 AUDIO
TITLE "Recipe For Love"
PERFORMER "Harry Connick, Jr."
REM COMPOSER ""
INDEX 00 07:09:02
INDEX 01 07:10:62
TRACK 04 AUDIO
TITLE "Drifting"
PERFORMER "Harry Connick, Jr."
REM COMPOSER ""
INDEX 00 09:45:72
INDEX 01 09:48:65
TRACK 05 AUDIO
TITLE "Forever, For Now"
PERFORMER "Harry Connick, Jr."
REM COMPOSER ""
INDEX 00 15:05:30
INDEX 01 15:07:70
TRACK 06 AUDIO
TITLE "A Nightingale Sang In Berkeley Square"
PERFORMER "Harry Connick, Jr."
REM COMPOSER ""
INDEX 00 19:29:45
INDEX 01 19:32:72
TRACK 07 AUDIO
TITLE "Heavenly"
PERFORMER "Harry Connick, Jr."
REM COMPOSER ""
INDEX 00 24:43:10
INDEX 01 24:46:05
TRACK 08 AUDIO
TITLE "Just A Boy"
PERFORMER "Harry Connick, Jr."
REM COMPOSER ""
INDEX 00 26:45:45
INDEX 01 26:48:62
TRACK 09 AUDIO
TITLE "I've Got A Great Idea"
PERFORMER "Harry Connick, Jr."
REM COMPOSER ""
INDEX 00 32:54:60
INDEX 01 32:58:40
TRACK 10 AUDIO
TITLE "I'll Dream Of You Again"
PERFORMER "Harry Connick, Jr."
REM COMPOSER ""
INDEX 00 37:21:20
INDEX 01 37:23:27
TRACK 11 AUDIO
TITLE "It's Alright With Me"
PERFORMER "Harry Connick, Jr."
REM COMPOSER ""
INDEX 00 40:56:25
INDEX 01 40:58:22
TRACK 12 AUDIO
TITLE "Buried In Blue"
PERFORMER "Harry Connick, Jr."
REM COMPOSER ""
INDEX 00 45:51:47
INDEX 01 45:53:52
[свернуть]

Лог проверки качества

AUDIOCHECKER v2.0 beta (build 457) - by Dester -
~~~~~~~~~~~~~~~~~~~~~~~~~~~~~~~~~~
-=== НЕ РЕДАКТИРУЙТЕ ЭТОТ ФАЙЛ! ===-

Путь: ...\1990 - We Are In Love [466736 2]

1 -=- Harry Connick, Jr. - We Are In Love.flac -=- CDDA (92%)

185732756
[свернуть]

Спектр частот

[свернуть]

Скачать Harry Connick, Jr. - We Are In Love



password: sergych
[свернуть]

Контрольная сумма (хеш-сумма) архива

MD5: 4844a81d6a6e1593d266fa64410f937d
[свернуть]
My opinion of release: 10/10

Release info RInfo

Выпущенный в 1990 году, альбом занял лидирующие позиции в джазовых, а затем и в поп-чарта.
Альбом получил Grammy в номинации Best Jazz Vocal Performance, Male, а заглавный трек прозвучал в прямом эфире на телепередаче Grammy 1991 года.
__________________
TAIFUN.Wings of Soul

Вверх
2 пользователя(ей) сказали cпасибо:
johnsilver (07.02.2018), TAIFUN (11.02.2018)
Похожие темы
Тема Автор Раздел Ответов Последнее сообщение
Альбом Gordon Haskell - Harry's Bar sergych Jazz и Blues 0 29.04.2015 17:12
Альбом Oscar Peterson & Harry Edison sergych Jazz и Blues 0 09.11.2013 11:00
Релиз Harry Manx - Bread and Buddha PUPOKIN Jazz и Blues 0 08.12.2009 12:07
Альбом Deborah Harry - Necessary Evil sergych Pop Rock 0 28.01.2009 21:29
Jonny L - Harry / Cumberbatch & Wires DarkDan Drum & Bass 0 23.04.2008 13:16


Метки
1990 , big band , harry connick jr. , jazz , we are in love

Опции темы

Ваши права в разделе
Вы не можете создавать новые темы
Вы не можете отвечать в темах
Вы не можете прикреплять вложения
Вы не можете редактировать свои сообщения

Быстрый переход



Текущее время: 18:55. Часовой пояс GMT +3.
Powered by vBulletin® Version 3.8.10
Copyright ©2000 - 2018, vBulletin Solutions, Inc. Перевод: zCarot
© 2008 - 2018 Taifun With Song
Яндекс.Метрика