TAIFUN With Song
Навигация
Jazz и Blues Гибкая ритмика, импровизационное начало, гармонии и мелодии - все это Jazz. Blues - жизнеутверждающая музыка, рожденная из душевной боли

А знаете ли Вы, что...
Почему песня «А может быть ворона» из советского мультфильма была записана в ускоренном темпе?
«Песня «А может быть ворона» изначально должна была звучать в мультфильме «Пластилиновая ворона» в обычном темпе. Однако режиссёр Александр Татарский не проследил за временем записи, из-за чего песня не уложилась в отведённые 5 минут анимации. Решение было найдено простое — песню ускорили, в результате чего она приобрела своё знаменитое «мультяшное» звучание.»
 
Опции темы

  #1
Старый 27.01.2018, 13:58
sergych
Координатор
Досье
 
Аватар для sergych
Релиз Kim Waters - Home For Christmas


1994 - Kim Waters - Home For Christmas




Исполнитель/Artist: Kim Waters
Альбом/Album: Home For Christmas
Год/Year: 1994
Жанр/Genre: smooth jazz, christmas
Страна/Country: Соединённые Штаты
Рекорд-лейбл/Record label: Warlock Records
Номер в каталоге/Catalogue #: WARCD-2750
Формат/Format: Free Lossless Audio Codec (*.flac)
Качество/Quality: Lossless
Тип рипа/RIP Type: image+.cue
Продолжительность/Length: 00:49:27
Источник/Source: Собственный рип
Размер/Size: 366.1 MB

Сканы в комплекте

Треклист

01. The Christmas Song [0:06:09.42]
02. Christ Was Born (On Christmas Day) [0:05:16.03]
03. White Christmas [0:03:38.67]
04. Silent Night [0:05:54.50]
05. Have Yourself A Merry Little Christmas (feat. Alex Simms) [0:04:51.73]
06. God Rest Ye Merry Gentlemen [0:04:36.62]
07. Jingle Bells [0:04:20.28]
08. WInter Wonderland [0:04:49.02]
09. Oh Christmas Tree [0:06:46.40]
10. Away In The Manager [0:03:02.48]
[свернуть]

EAC лог

Exact Audio Copy V1.3 from 2. September 2016

EAC extraction logfile from 19. January 2018, 4:58

Kim Waters / Home For Christmas

Used drive : ATAPI iHAS124 D Adapter: 0 ID: 2

Read mode : Secure
Utilize accurate stream : Yes
Defeat audio cache : Yes
Make use of C2 pointers : No

Read offset correction : 6
Overread into Lead-In and Lead-Out : No
Fill up missing offset samples with silence : Yes
Delete leading and trailing silent blocks : No
Null samples used in CRC calculations : Yes
Used interface : Installed external ASPI interface

Used output format : User Defined Encoder
Selected bitrate : 1024 kBit/s
Quality : High
Add ID3 tag : No
Command line compressor : C:\Program Files (x86)\Exact Audio Copy\Flac\flac.exe
Additional command line options : -6 -V -T "ARTIST=%artist%" -T "TITLE=%title%" -T "ALBUM=%albumtitle%" -T "DATE=%year%" -T "TRACKNUMBER=%tracknr%" -T "GENRE=%genre%" -T "COMMENT=%comment%" -T "BAND=%albuminterpret%" -T "ALBUMARTIST=%albuminterpret%" -T "COMPOSER=%composer%" %haslyrics%--tag-from-file=LYRICS="%lyricsfile%"%haslyrics% -T "DISCNUMBER=%cdnumber%" -T "TOTALDISCS=%totalcds%" -T "TOTALTRACKS=%numtracks%" %hascover%--picture="%coverfile%"%hascover% %source% -o %dest%


TOC of the extracted CD

Track | Start | Length | Start sector | End sector
---------------------------------------------------------
1 | 0:00.00 | 6:09.42 | 0 | 27716
2 | 6:09.42 | 5:16.03 | 27717 | 51419
3 | 11:25.45 | 3:38.67 | 51420 | 67836
4 | 15:04.37 | 5:54.50 | 67837 | 94436
5 | 20:59.12 | 4:51.73 | 94437 | 116334
6 | 25:51.10 | 4:36.62 | 116335 | 137096
7 | 30:27.72 | 4:20.28 | 137097 | 156624
8 | 34:48.25 | 4:49.02 | 156625 | 178301
9 | 39:37.27 | 6:46.40 | 178302 | 208791
10 | 46:23.67 | 3:02.48 | 208792 | 222489


Range status and errors

Selected range

Filename C:\mm\Kim Waters\1994 - Home For Christmas [WARCD-2750]\Kim Waters - Home For Christmas.wav

Peak level 100.0 %
Extraction speed 1.7 X
Range quality 100.0 %
Test CRC F30F75EB
Copy CRC F30F75EB
Copy OK

No errors occurred


AccurateRip summary

Track 1 not present in database
Track 2 not present in database
Track 3 not present in database
Track 4 not present in database
Track 5 not present in database
Track 6 not present in database
Track 7 not present in database
Track 8 not present in database
Track 9 not present in database
Track 10 not present in database

None of the tracks are present in the AccurateRip database

End of status report

---- CUETools DB Plugin V2.1.6

[CTDB TOCID: G8oTDwjswK7tZo8UN3q9NnQMrEQ-] found
Submit result: G8oTDwjswK7tZo8UN3q9NnQMrEQ- has been confirmed
Track | CTDB Status
1 | (2/3) Accurately ripped
2 | (2/3) Accurately ripped
3 | (2/3) Accurately ripped
4 | (2/3) Accurately ripped
5 | (2/3) Accurately ripped
6 | (2/3) Accurately ripped
7 | (2/3) Accurately ripped
8 | (2/3) Accurately ripped
9 | (2/3) Accurately ripped
10 | (2/3) Accurately ripped
[свернуть]

Файл CUE

REM GENRE Jazz
REM DATE 1994
REM DISCID 930B960A
REM COMMENT "ExactAudioCopy v1.3"
PERFORMER "Kim Waters"
TITLE "Home For Christmas"
REM COMPOSER ""
FILE "Kim Waters - Home For Christmas.flac" WAVE
TRACK 01 AUDIO
TITLE "The Christmas Song"
PERFORMER "Kim Waters"
REM COMPOSER ""
INDEX 01 00:00:00
TRACK 02 AUDIO
TITLE "Christ Was Born (On Christmas Day)"
PERFORMER "Kim Waters"
REM COMPOSER ""
INDEX 00 06:06:05
INDEX 01 06:09:42
TRACK 03 AUDIO
TITLE "White Christmas"
PERFORMER "Kim Waters"
REM COMPOSER ""
INDEX 00 11:22:40
INDEX 01 11:25:45
TRACK 04 AUDIO
TITLE "Silent Night"
PERFORMER "Kim Waters"
REM COMPOSER ""
INDEX 00 15:01:25
INDEX 01 15:04:37
TRACK 05 AUDIO
TITLE "Have Yourself A Merry Little Christmas (feat. Alex Simms)"
PERFORMER "Kim Waters with Alex Simms"
REM COMPOSER ""
INDEX 00 20:55:47
INDEX 01 20:59:12
TRACK 06 AUDIO
TITLE "God Rest Ye Merry Gentlemen"
PERFORMER "Kim Waters"
REM COMPOSER ""
INDEX 00 25:48:07
INDEX 01 25:51:10
TRACK 07 AUDIO
TITLE "Jingle Bells"
PERFORMER "Kim Waters"
REM COMPOSER ""
INDEX 00 30:24:57
INDEX 01 30:27:72
TRACK 08 AUDIO
TITLE "WInter Wonderland"
PERFORMER "Kim Waters"
REM COMPOSER ""
INDEX 00 34:45:47
INDEX 01 34:48:25
TRACK 09 AUDIO
TITLE "Oh Christmas Tree"
PERFORMER "Kim Waters"
REM COMPOSER ""
INDEX 00 39:35:40
INDEX 01 39:37:27
TRACK 10 AUDIO
TITLE "Away In The Manager"
PERFORMER "Kim Waters"
REM COMPOSER ""
INDEX 00 46:21:20
INDEX 01 46:23:67
[свернуть]

Лог проверки качества

AUDIOCHECKER v2.0 beta (build 457) - by Dester - [Ссылки могут видеть только зарегистрированные и активированные пользователи.]
[Only registered and activated users can see links.]
~~~~~~~~~~~~~~~~~~~~~~~~~~~~~~~~~~
-=== НЕ РЕДАКТИРУЙТЕ ЭТОТ ФАЙЛ! ===-

Путь: ...\1994 - Home For Christmas [WARCD-2750]

1 -=- Kim Waters - Home For Christmas.flac -=- CDDA (99%)

253542612
[свернуть]

Спектр частот

[свернуть]

Скачать Kim Waters - Home For Christmas

[Ссылки могут видеть только зарегистрированные и активированные пользователи.]
[Only registered and activated users can see links.]

password: sergych
[свернуть]

Контрольная сумма (хеш-сумма) архива

MD5: a2318199e02cf5dfbc6c88de4434c1fd
[свернуть]
My opinion of release: 10/10
__________________
TAIFUN.Wings of Soul

Вверх
2 пользователя(ей) сказали cпасибо:
johnsilver (27.01.2018), TAIFUN (28.01.2018)
Похожие темы
Тема Автор Раздел Ответов Последнее сообщение
Live Roger Waters - Roger Waters: The Wall sergych Progressive Rock 0 23.10.2016 01:10
Альбом Kim Waters - All Because Of You sergych Jazz и Blues 0 07.09.2016 00:04
Альбом Sheryl Crow - Home For Christmas sergych Jazz и Blues 0 27.12.2014 20:50
Релиз Sweet Emma and the Mood Swingers - Home Sweet Home PUPOKIN Jazz и Blues 0 24.03.2011 11:20
Релиз South Memphis String Band - Home Sweet Home PUPOKIN Jazz и Blues 0 01.03.2010 11:34


Метки
1994 , christmas , home for christmas , kim waters , smooth jazz

Опции темы

Ваши права в разделе
Вы не можете создавать новые темы
Вы не можете отвечать в темах
Вы не можете прикреплять вложения
Вы не можете редактировать свои сообщения

Быстрый переход



Текущее время: 16:30. Часовой пояс GMT +3.
Powered by vBulletin® Version 3.8.10
Copyright ©2000 - 2018, vBulletin Solutions, Inc. Перевод: zCarot
© 2008 - 2018 Taifun With Song
Яндекс.Метрика