TAIFUN With Song
Саундтреки Саундтреки к фильмам, анимации, играм, сериалам

А знаете ли Вы, что...
Где недавно был совершён акт каннибализма с согласия жертвы?
«В 2001 году в немецком Ротенбурге Армин Майвес поместил в интернете серию каннибальских объявлений в поисках молодого парня в возрасте от 18 до 30 лет, желающего умереть и быть съеденным. На одно из объявлений откликнулся Бернд Брандес. Он, по своему собственному согласию, был убит и частично съеден Майвесом, позже приговорённым к пожизненному заключению. На этот сюжет написана песня «Mein Teil» группы Rammstein.»
 
Опции темы

  #1
Старый 06.03.2009, 21:28
sergych
Координатор
Досье
 
Аватар для sergych
По умолчанию The Living Sea (music by Sting)


1995 - The Living Sea: Soundtrack from the IMAX Film




Исполнитель/Artist: Sting
Альбом/Album: The Living Sea: Soundtrack from the IMAX Film
Год/Year: 1995
Жанр/Genre: Pop, New Age
Страна/Country: Соединённые Штаты
Рекорд-лейбл/Record label: A&M Records
Номер в каталоге/Catalogue #: CD-0350
Формат/Format: Free Lossless Audio Codec (*.flac)
Качество/Quality: Lossless
Тип рипа/RIP Type: tracks+.cue
Продолжительность/Length: 00:52:13
Источник/Source: Из интернета
Размер/Size: 326.6 MB

Сканы в комплекте

Треклист

01 - Fragile
02 - Why Should I Cry For You?
03 - Cool Breeze
04 - Mad About You
05 - Ocean Waltz
06 - One World (Not Three) - Love Is The Seventh Wave
07 - Why Should I Cry For You?
08 - Saint Agnes And The Burning Train
09 - Tides
10 - Why Should I Cry For You? [Extended Version]
11 - Arrival
12 - Jellyfish Lake
13 - Fragile [Reprise]
[свернуть]

youtube.com

[свернуть]

Исполнители/Performers

Sting – performer
Alan Deremo – bass guitar
Tim Landers – bass guitar
Ardeshir Farah – guitars
Michael Hamilton – guitars
Jorge Strunz – guitars
Brent Lewis – ikauma drums
Nate Wood – drums
Daniel May – orchestration
Kevin Ricard – percussion
Mechito Sanchez – percussion
Marc Russo – saxophone
Beth Wood – voices
Steve Wood – synthesizer, voices
[свернуть]

EAC лог

Exact Audio Copy V0.99 prebeta 4 from 23. January 2008

EAC extraction logfile from 26. December 2008, 12:53

Sting / The Living Sea

Used drive : Optiarc DVD RW AD-7203A Adapter: 3 ID: 0

Read mode : Secure
Utilize accurate stream : Yes
Defeat audio cache : Yes
Make use of C2 pointers : No

Read offset correction : 48
Overread into Lead-In and Lead-Out : No
Fill up missing offset samples with silence : Yes
Delete leading and trailing silent blocks : No
Null samples used in CRC calculations : Yes
Used interface : Native Win32 interface for Win NT & 2000
Gap handling : Not detected, thus appended to previous track

Used output format : User Defined Encoder
Selected bitrate : 768 kBit/s
Quality : High
Add ID3 tag : No
Command line compressor : C:\Program Files\Exact Audio Copy\FLAC\FLAC.EXE
Additional command line options : -6 -V -T "ARTIST=%a" -T "TITLE=%t" -T "ALBUM=%g" -T "DATE=%y" -T "TRACKNUMBER=%n" -T "GENRE=%m" -T "COMMENT=%e" %s -o %d


TOC of the extracted CD

Track | Start | Length | Start sector | End sector
---------------------------------------------------------
1 | 0:00.00 | 3:24.20 | 0 | 15319
2 | 3:24.20 | 2:56.43 | 15320 | 28562
3 | 6:20.63 | 3:48.25 | 28563 | 45687
4 | 10:09.13 | 6:17.62 | 45688 | 74024
5 | 16:27.00 | 3:08.00 | 74025 | 88124
6 | 19:35.00 | 4:44.50 | 88125 | 109474
7 | 24:19.50 | 6:31.30 | 109475 | 138829
8 | 30:51.05 | 2:43.33 | 138830 | 151087
9 | 33:34.38 | 3:08.17 | 151088 | 165204
10 | 36:42.55 | 6:57.45 | 165205 | 196524
11 | 43:40.25 | 1:40.13 | 196525 | 204037
12 | 45:20.38 | 3:00.65 | 204038 | 217602
13 | 48:21.28 | 3:53.10 | 217603 | 235087


Track 1

Filename C:\DOWNLOADS\Sting\The Living Sea\Sting - The Living Sea - 01 - Fragile.wav

Peak level 98.1 %
Track quality 100.0 %
Test CRC 24BA54BB
Copy CRC 24BA54BB
Accurately ripped (confidence 2) [585570E3]
Copy OK

Track 2

Filename C:\DOWNLOADS\Sting\The Living Sea\Sting - The Living Sea - 02 - Why Should I Cry For You .wav

Peak level 97.5 %
Track quality 100.0 %
Test CRC 8BDBF9AC
Copy CRC 8BDBF9AC
Accurately ripped (confidence 2) [16B6465E]
Copy OK

Track 3

Filename C:\DOWNLOADS\Sting\The Living Sea\Sting - The Living Sea - 03 - Cool Breeze.wav

Peak level 96.8 %
Track quality 100.0 %
Test CRC AFC73F9A
Copy CRC AFC73F9A
Accurately ripped (confidence 2) [F7695FDA]
Copy OK

Track 4

Filename C:\DOWNLOADS\Sting\The Living Sea\Sting - The Living Sea - 04 - Mad About You.wav

Peak level 86.7 %
Track quality 100.0 %
Test CRC 84B75E9B
Copy CRC 84B75E9B
Accurately ripped (confidence 2) [C456DED0]
Copy OK

Track 5

Filename C:\DOWNLOADS\Sting\The Living Sea\Sting - The Living Sea - 05 - Ocean Waltz.wav

Peak level 86.5 %
Track quality 100.0 %
Test CRC 90BC4FC2
Copy CRC 90BC4FC2
Accurately ripped (confidence 2) [BEBC6628]
Copy OK

Track 6

Filename C:\DOWNLOADS\Sting\The Living Sea\Sting - The Living Sea - 06 - One World (Not Three) , Love Is The Seventh Wave.wav

Peak level 85.2 %
Track quality 100.0 %
Test CRC AA8E4AF1
Copy CRC AA8E4AF1
Accurately ripped (confidence 2) [B91C418A]
Copy OK

Track 7

Filename C:\DOWNLOADS\Sting\The Living Sea\Sting - The Living Sea - 07 - Why Should I Cry For You .wav

Peak level 98.4 %
Track quality 100.0 %
Test CRC 0901F62D
Copy CRC 0901F62D
Accurately ripped (confidence 2) [533B5B8F]
Copy OK

Track 8

Filename C:\DOWNLOADS\Sting\The Living Sea\Sting - The Living Sea - 08 - Saint Agnes And The Burning Train.wav

Peak level 75.7 %
Track quality 100.0 %
Test CRC CC014973
Copy CRC CC014973
Accurately ripped (confidence 2) [AF99187F]
Copy OK

Track 9

Filename C:\DOWNLOADS\Sting\The Living Sea\Sting - The Living Sea - 09 - Tides.wav

Peak level 99.3 %
Track quality 100.0 %
Test CRC 6C0FF689
Copy CRC 6C0FF689
Accurately ripped (confidence 2) [EE0879D3]
Copy OK

Track 10

Filename C:\DOWNLOADS\Sting\The Living Sea\Sting - The Living Sea - 10 - Why Should I Cry For You .wav

Peak level 82.4 %
Track quality 100.0 %
Test CRC 3034645C
Copy CRC 3034645C
Accurately ripped (confidence 2) [66FD8FCA]
Copy OK

Track 11

Filename C:\DOWNLOADS\Sting\The Living Sea\Sting - The Living Sea - 11 - Arrival.wav

Peak level 92.8 %
Track quality 100.0 %
Test CRC 9B17075C
Copy CRC 9B17075C
Accurately ripped (confidence 2) [0B9F5CE3]
Copy OK

Track 12

Filename C:\DOWNLOADS\Sting\The Living Sea\Sting - The Living Sea - 12 - Jellyfish Lake.wav

Peak level 85.9 %
Track quality 100.0 %
Test CRC AB78BED3
Copy CRC AB78BED3
Accurately ripped (confidence 2) [129C7A39]
Copy OK

Track 13

Filename C:\DOWNLOADS\Sting\The Living Sea\Sting - The Living Sea - 13 - Fragile (Reprise).wav

Peak level 98.0 %
Track quality 99.9 %
Test CRC 125AB42C
Copy CRC 125AB42C
Accurately ripped (confidence 2) [F392D78E]
Copy OK


All tracks accurately ripped

No errors occurred

End of status report
[свернуть]

Файл CUE

REM GENRE Soundtrack
REM DATE 1995
REM DISCID 9E0C3E0D
REM COMMENT "ExactAudioCopy v0.99pb4"
PERFORMER "Sting"
TITLE "The Living Sea"
FILE "01 - Sting - Fragile.wav" WAVE
TRACK 01 AUDIO
TITLE "Fragile"
PERFORMER "Sting"
INDEX 01 00:00:00
FILE "02 - Sting - Why Should I Cry For You.wav" WAVE
TRACK 02 AUDIO
TITLE "Why Should I Cry For You?"
PERFORMER "Sting"
INDEX 01 00:00:00
FILE "03 - Sting - Cool Breeze.wav" WAVE
TRACK 03 AUDIO
TITLE "Cool Breeze"
PERFORMER "Sting"
INDEX 01 00:00:00
FILE "04 - Sting - Mad About You.wav" WAVE
TRACK 04 AUDIO
TITLE "Mad About You"
PERFORMER "Sting"
INDEX 01 00:00:00
FILE "05 - Sting - Ocean Waltz.wav" WAVE
TRACK 05 AUDIO
TITLE "Ocean Waltz"
PERFORMER "Sting"
INDEX 01 00:00:00
FILE "06 - Sting - One World (Not Three) - Love Is The Seventh Wave.wav" WAVE
TRACK 06 AUDIO
TITLE "One World (Not Three) / Love Is The Seventh Wave"
PERFORMER "Sting"
INDEX 01 00:00:00
FILE "07 - Sting - Why Should I Cry For You.wav" WAVE
TRACK 07 AUDIO
TITLE "Why Should I Cry For You?"
PERFORMER "Sting"
INDEX 01 00:00:00
FILE "08 - Sting - Saint Agnes And The Burning Train.wav" WAVE
TRACK 08 AUDIO
TITLE "Saint Agnes And The Burning Train"
PERFORMER "Sting"
INDEX 01 00:00:00
TRACK 09 AUDIO
TITLE "Tides"
PERFORMER "Sting"
INDEX 00 02:43:15
FILE "09 - Sting - Tides.wav" WAVE
INDEX 01 00:00:00
FILE "10 - Sting - Why Should I Cry For You [Extended Version].wav" WAVE
TRACK 10 AUDIO
TITLE "Why Should I Cry For You?"
PERFORMER "Sting"
INDEX 01 00:00:00
TRACK 11 AUDIO
TITLE "Arrival"
PERFORMER "Sting"
INDEX 00 06:56:50
FILE "11 - Steve Wood - Arrival.wav" WAVE
INDEX 01 00:00:00
FILE "12 - Steve Wood - Jellyfish Lake.wav" WAVE
TRACK 12 AUDIO
TITLE "Jellyfish Lake"
PERFORMER "Sting"
INDEX 01 00:00:00
FILE "13 - Sting - Fragile [Reprise].wav" WAVE
TRACK 13 AUDIO
TITLE "Fragile (Reprise)"
PERFORMER "Sting"
INDEX 01 00:00:00
[свернуть]

Лог проверки качества

AUDIOCHECKER v2.0 beta (build 457) - by Dester - [Ссылки могут видеть только зарегистрированные пользователи. ]
~~~~~~~~~~~~~~~~~~~~~~~~~~~~~~~~~~
-=== НЕ РЕДАКТИРУЙТЕ ЭТОТ ФАЙЛ! ===-

Путь: ...\1995 - The Living Sea

01 -=- 01 - Sting - Fragile.flac -=- CDDA (100%)
02 -=- 02 - Sting - Why Should I Cry For You.flac -=- CDDA (99%)
03 -=- 03 - Sting - Cool Breeze.flac -=- CDDA (100%)
04 -=- 04 - Sting - Mad About You.flac -=- CDDA (100%)
05 -=- 05 - Sting - Ocean Waltz.flac -=- CDDA (100%)
06 -=- 06 - Sting - One World (Not Three) - Love Is The Seventh Wave.flac -=- CDDA (100%)
07 -=- 07 - Sting - Why Should I Cry For You.flac -=- CDDA (99%)
08 -=- 08 - Sting - Saint Agnes And The Burning Train.flac -=- CDDA (99%)
09 -=- 09 - Sting - Tides.flac -=- CDDA (100%)
10 -=- 10 - Sting - Why Should I Cry For You [Extended Version].flac -=- CDDA (100%)
11 -=- 11 - Steve Wood - Arrival.flac -=- CDDA (100%)
12 -=- 12 - Steve Wood - Jellyfish Lake.flac -=- CDDA (100%)
13 -=- 13 - Sting - Fragile [Reprise].flac -=- CDDA (100%)

Сводка 99,77% CDDA

152136980
[свернуть]

Скачать 1995 - The Living Sea (music by Sting)

[Ссылки могут видеть только зарегистрированные пользователи. ]

password: sergych
[свернуть]
My opinion of release: 10/10

Release info RInfo

Written-By – Sting (tracks: 1 to 10, 13)
Written-By – Steve Wood (tracks: 11, 12)
__________________
TAIFUN.Wings of Soul


Последний раз редактировалось sergych, 22.09.2013 в 16:32. Причина: перезаливка с лучшим качеством, переоформление
Вверх
  #2
Старый 12.01.2014, 21:35
sergych
Координатор
Досье
 
Аватар для sergych
По умолчанию Re: The Living Sea (music by Sting)


1995 - The Living Sea: Soundtrack from the IMAX Film




Исполнитель/Artist: Sting
Альбом/Album: The Living Sea: Soundtrack from the IMAX Film
Год/Year: 1995
Жанр/Genre: Pop, New Age
Страна/Country: Германия
Рекорд-лейбл/Record label: A&M Records
Номер в каталоге/Catalogue #: 540 350-2
Формат/Format: Free Lossless Audio Codec (*.flac)
Качество/Quality: Lossless
Тип рипа/RIP Type: image+.cue
Продолжительность/Length: 00:52:14
Источник/Source: Собственный рип
Размер/Size: 340 MB

Сканы в комплекте

Треклист

01. Fragile [0:03:24.20]
02. Why Should I Cry For You? [0:02:56.42]
03. Cool Breeze [0:03:48.25]
04. Mad About You [0:06:17.63]
05. Ocean Waltz [0:03:08.00]
06. One World (Not Three) / Love Is The Seventh Wave [0:04:44.50]
07. Why Should I Cry For You? [0:06:31.30]
08. Saint Agnes And The Burning Train [0:02:43.32]
09. Tides [0:03:08.18]
10. Why Should I Cry For You? [0:06:57.45]
11. Arrival [0:01:40.12]
12. Jellyfish Lake [0:03:00.65]
13. Fragile (Reprise) [0:03:53.10]
[свернуть]

youtube.com

[свернуть]

Исполнители/Performers

Sting – performer
Alan Deremo – bass guitar
Tim Landers – bass guitar
Ardeshir Farah – guitars
Michael Hamilton – guitars
Jorge Strunz – guitars
Brent Lewis – ikauma drums
Nate Wood – drums
Daniel May – orchestration
Kevin Ricard – percussion
Mechito Sanchez – percussion
Marc Russo – saxophone
Beth Wood – voices
Steve Wood – synthesizer, voices
[свернуть]

EAC лог

Exact Audio Copy V1.0 beta 3 from 29. August 2011

EAC extraction logfile from 12. January 2014, 22:21

Sting / The Living Sea (Soundtrack From The IMAX Film)

Used drive : ATAPI iHAS124 D Adapter: 0 ID: 2

Read mode : Secure
Utilize accurate stream : Yes
Defeat audio cache : Yes
Make use of C2 pointers : Yes

Read offset correction : 6
Overread into Lead-In and Lead-Out : No
Fill up missing offset samples with silence : Yes
Delete leading and trailing silent blocks : No
Null samples used in CRC calculations : Yes
Used interface : Installed external ASPI interface

Used output format : User Defined Encoder
Selected bitrate : 1024 kBit/s
Quality : High
Add ID3 tag : No
Command line compressor : C:\Program Files (x86)\Exact Audio Copy\Flac\flac.exe
Additional command line options : -6 -V -T "ARTIST=%artist%" -T "TITLE=%title%" -T "ALBUM=%albumtitle%" -T "DATE=%year%" -T "TRACKNUMBER=%tracknr%" -T "GENRE=%genre%" -T "COMMENT=%comment%" -T "BAND=%albuminterpret%" -T "COMPOSER=%composer%" %haslyrics%--tag-from-file=LYRICS="%lyricsfile%"%haslyrics% -T "DISCNUMBER=%cdnumber%" -T "TOTALDISCS=%totalcds%" -T "TOTALTRACKS=%numtracks%" %hascover%--picture="%coverfile%"%hascover% %source% -o %dest%


TOC of the extracted CD

Track | Start | Length | Start sector | End sector
---------------------------------------------------------
1 | 0:00.00 | 3:24.20 | 0 | 15319
2 | 3:24.20 | 2:56.42 | 15320 | 28561
3 | 6:20.62 | 3:48.25 | 28562 | 45686
4 | 10:09.12 | 6:17.63 | 45687 | 74024
5 | 16:27.00 | 3:08.00 | 74025 | 88124
6 | 19:35.00 | 4:44.50 | 88125 | 109474
7 | 24:19.50 | 6:31.30 | 109475 | 138829
8 | 30:51.05 | 2:43.32 | 138830 | 151086
9 | 33:34.37 | 3:08.18 | 151087 | 165204
10 | 36:42.55 | 6:57.45 | 165205 | 196524
11 | 43:40.25 | 1:40.12 | 196525 | 204036
12 | 45:20.37 | 3:00.65 | 204037 | 217601
13 | 48:21.27 | 3:53.10 | 217602 | 235086


Range status and errors

Selected range

Filename C:\mm\Sting\1995 - The Living Sea [540 350-2]\Sting - The Living Sea (Soundtrack From The IMAX Film).wav

Peak level 99.3 %
Extraction speed 4.8 X
Range quality 100.0 %
Test CRC AD973895
Copy CRC AD973895
Copy OK

No errors occurred


AccurateRip summary

Track 1 accurately ripped (confidence 5) [4A7C082A] (AR v2)
Track 2 accurately ripped (confidence 5) [89D22FEC] (AR v2)
Track 3 accurately ripped (confidence 5) [0D7FFB02] (AR v2)
Track 4 accurately ripped (confidence 5) [14C2326F] (AR v2)
Track 5 accurately ripped (confidence 5) [F059E06B] (AR v2)
Track 6 accurately ripped (confidence 5) [AFD342FC] (AR v2)
Track 7 accurately ripped (confidence 5) [33C9623D] (AR v2)
Track 8 accurately ripped (confidence 5) [DA0CA828] (AR v2)
Track 9 accurately ripped (confidence 5) [6815473D] (AR v2)
Track 10 accurately ripped (confidence 5) [3DDE0412] (AR v2)
Track 11 accurately ripped (confidence 5) [2FC67770] (AR v2)
Track 12 accurately ripped (confidence 5) [B1D5B8A2] (AR v2)
Track 13 accurately ripped (confidence 5) [4295C40D] (AR v2)

All tracks accurately ripped

End of status report
[свернуть]

Файл CUE

REM DATE 1995
REM DISCID 9E0C3E0D
REM COMMENT "ExactAudioCopy v1.0b3"
PERFORMER "Sting"
TITLE "The Living Sea (Soundtrack From The IMAX Film)"
FILE "Sting - The Living Sea (Soundtrack From The IMAX Film).flac" WAVE
TRACK 01 AUDIO
TITLE "Fragile"
PERFORMER "Sting"
INDEX 01 00:00:00
TRACK 02 AUDIO
TITLE "Why Should I Cry For You?"
PERFORMER "Sting"
INDEX 01 03:24:20
TRACK 03 AUDIO
TITLE "Cool Breeze"
PERFORMER "Sting"
INDEX 01 06:20:62
TRACK 04 AUDIO
TITLE "Mad About You"
PERFORMER "Sting"
INDEX 01 10:09:12
TRACK 05 AUDIO
TITLE "Ocean Waltz"
PERFORMER "Sting"
INDEX 01 16:27:00
TRACK 06 AUDIO
TITLE "One World (Not Three) / Love Is The Seventh Wave"
PERFORMER "Sting"
INDEX 01 19:35:00
TRACK 07 AUDIO
TITLE "Why Should I Cry For You?"
PERFORMER "Sting"
INDEX 01 24:19:50
TRACK 08 AUDIO
TITLE "Saint Agnes And The Burning Train"
PERFORMER "Sting"
INDEX 01 30:51:05
TRACK 09 AUDIO
TITLE "Tides"
PERFORMER "Sting"
INDEX 00 33:34:20
INDEX 01 33:34:37
TRACK 10 AUDIO
TITLE "Why Should I Cry For You?"
PERFORMER "Sting"
INDEX 01 36:42:55
TRACK 11 AUDIO
TITLE "Arrival"
PERFORMER "Sting"
INDEX 00 43:39:30
INDEX 01 43:40:25
TRACK 12 AUDIO
TITLE "Jellyfish Lake"
PERFORMER "Sting"
INDEX 01 45:20:37
TRACK 13 AUDIO
TITLE "Fragile (Reprise)"
PERFORMER "Sting"
INDEX 01 48:21:27
[свернуть]

Лог проверки качества

AUDIOCHECKER v2.0 beta (build 457) - by Dester - [Ссылки могут видеть только зарегистрированные пользователи. ]
~~~~~~~~~~~~~~~~~~~~~~~~~~~~~~~~~~
-=== НЕ РЕДАКТИРУЙТЕ ЭТОТ ФАЙЛ! ===-

Путь: ...\1995 - The Living Sea [540 350-2]

1 -=- Sting - The Living Sea (Soundtrack From The IMAX Film).flac -=- CDDA (100%)

2221492
[свернуть]

Спектр частот

[свернуть]

Скачать The Living Sea (music by Sting)

[Ссылки могут видеть только зарегистрированные пользователи. ]

password: sergych
[свернуть]
My opinion of release: 10/10
__________________
TAIFUN.Wings of Soul

Вверх
Похожие темы
Тема Автор Раздел Ответов Последнее сообщение
Релиз Pontiak - Living PUPOKIN Psychedelic Rock 0 07.04.2010 10:24
Релиз Living Hell - Oblivion PUPOKIN Hardcore Rock 0 10.10.2009 09:35
Релиз Living Room - Changes PUPOKIN Lounge 0 10.06.2009 10:54
Саундтрек Dolphins / Дельфины (music by Sting) sergych Саундтреки 0 07.03.2009 11:43
Оживший ад / Living Hell dmitriy89 Триллеры/Ужасы/Мистика 0 26.06.2008 15:25


Метки
jazz , new wave , rock , sting

Опции темы

Ваши права в разделе
Вы не можете создавать новые темы
Вы не можете отвечать в темах
Вы не можете прикреплять вложения
Вы не можете редактировать свои сообщения

Быстрый переход



Текущее время: 06:41. Часовой пояс GMT +3.
Powered by vBulletin® Version 3.8.7
Copyright ©2000 - 2017, vBulletin Solutions, Inc. Перевод: zCarot
© 2008 - 2017 Taifun With Song
Яндекс.Метрика