TAIFUN With Song
Вернуться   TAIFUN With Song > Music (обменник) > Club & Electronic Music > Disco
Расширенный поиск
Disco Один из самых популярных танцевальных музыкальных стилей 70-х годов. Цель этой музыки была одна: любыми способами заставить людей выйти на танцплощадку, поэтому Disco преуспело главным образом как студийное творчество, увековеченное на пластинках, а далеко не как живые концертные шоу. Почти для всех произведений Disco характерен монотонный акцентированный ритм, фоновое звучание ведущих инструментов группы или оркестра (гитары, струнные, духовые) и достаточно выразительный вокал.

А знаете ли Вы, что...
Зачем группа Van Halen в своём райдере требовала предоставить M&M's, но убрать все коричневые конфеты?
«Американская хард-рок группа Van Halen выезжала на гастроли с большим количеством сценического оборудования, так как их шоу были одними из самых сложных в техническом отношении и насыщены множеством спецэффектов. В райдере группы одним из требований было поставить на стол в гримёрке блюдо с M&M's, из которого должны быть убраны все коричневые конфеты. Объяснялся этот пункт вовсе не повышенной капризностью рокеров — если организаторы концерта не выполняли требование об M&M's, это говорило об их невнимательном отношении к деталям райдера. Значит, и другие его пункты могли быть проигнорированы, что могло создать проблемы с качественным проведением шоу и его безопасностью.»
 
Опции темы

  #1
Старый 07.06.2017, 20:40
sergych
Координатор
Досье
 
Аватар для sergych
Релиз Donna Summer - Walk Away. Collector's Edition. The Best Of 1977-1980


1980 - Donna Summer - Walk Away. Collector's Edition. The Best Of 1977-1980




Исполнитель/Artist: Donna Summer
Альбом/Album: Walk Away. Collector's Edition. The Best Of 1977-1980
Год/Year: 1980
Жанр/Genre: Pop, dance, disco
Страна/Country: Германия
Рекорд-лейбл/Record label: Casablanca / Polygram
Номер в каталоге/Catalogue #: 810 011-2
Формат/Format: Free Lossless Audio Codec (*.flac)
Качество/Quality: Lossless
Тип рипа/RIP Type: image+.cue
Продолжительность/Length: 00:37:15
Источник/Source: Собственный рип
Размер/Size: 292.6 MB

Сканы в комплекте

Треклист

01. Bad Girls [0:03:55.50]
02. Hot Stuff [0:03:45.50]
03. On The Radio [0:04:04.50]
04. I Feel Love [0:05:41.00]
05. Walk Away [0:03:42.15]
06. Last Dance [0:03:19.60]
07. Sunset People [0:03:58.38]
08. MacArthur Park [0:03:55.25]
09. Our Love [0:04:51.72]
[свернуть]

youtube.com

[свернуть]

EAC лог

Exact Audio Copy V1.3 from 2. September 2016

EAC extraction logfile from 5. June 2017, 20:29

Donna Summer / Walk Away

Used drive : PLEXTOR DVDR PX-716A Adapter: 1 ID: 0

Read mode : Secure
Utilize accurate stream : Yes
Defeat audio cache : Yes
Make use of C2 pointers : No

Read offset correction : 30
Overread into Lead-In and Lead-Out : No
Fill up missing offset samples with silence : Yes
Delete leading and trailing silent blocks : No
Null samples used in CRC calculations : Yes
Used interface : Native Win32 interface for Win NT & 2000

Used output format : User Defined Encoder
Selected bitrate : 1024 kBit/s
Quality : High
Add ID3 tag : Yes
Command line compressor : C:\Program Files (x86)\Exact Audio Copy\Flac\flac.exe


TOC of the extracted CD

Track | Start | Length | Start sector | End sector
---------------------------------------------------------
1 | 0:00.32 | 3:55.50 | 32 | 17706
2 | 3:56.07 | 3:45.50 | 17707 | 34631
3 | 7:41.57 | 4:04.50 | 34632 | 52981
4 | 11:46.32 | 5:41.00 | 52982 | 78556
5 | 17:27.32 | 3:42.15 | 78557 | 95221
6 | 21:09.47 | 3:19.60 | 95222 | 110206
7 | 24:29.32 | 3:58.38 | 110207 | 128094
8 | 28:27.70 | 3:55.25 | 128095 | 145744
9 | 32:23.20 | 4:51.72 | 145745 | 167641


Range status and errors

Selected range

Filename C:\mm\Donna Summer\1980 - Walk Away [810 011-2]\Donna Summer - Walk Away.wav

Peak level 100.0 %
Extraction speed 2.5 X
Range quality 100.0 %
Test CRC 405FD4DB
Copy CRC 405FD4DB
Copy OK

No errors occurred


AccurateRip summary

Track 1 accurately ripped (confidence 43) [868EBA72] (AR v2)
Track 2 accurately ripped (confidence 44) [6893A99B] (AR v2)
Track 3 accurately ripped (confidence 42) [9C47C85B] (AR v2)
Track 4 accurately ripped (confidence 42) [31C0F04F] (AR v2)
Track 5 accurately ripped (confidence 42) [088CAC26] (AR v2)
Track 6 accurately ripped (confidence 42) [22270309] (AR v2)
Track 7 accurately ripped (confidence 42) [6FFC9A79] (AR v2)
Track 8 accurately ripped (confidence 44) [9DAEE8E2] (AR v2)
Track 9 accurately ripped (confidence 43) [38147121] (AR v2)

All tracks accurately ripped

End of status report

---- CUETools DB Plugin V2.1.6

[CTDB TOCID: XlmLpekQbStZ8t2xO7Un9m2Xgbg-] found
Submit result: XlmLpekQbStZ8t2xO7Un9m2Xgbg- has been confirmed
Track | CTDB Status
1 | (43/43) Accurately ripped
2 | (43/43) Accurately ripped
3 | (43/43) Accurately ripped
4 | (43/43) Accurately ripped
5 | (43/43) Accurately ripped
6 | (43/43) Accurately ripped
7 | (43/43) Accurately ripped
8 | (43/43) Accurately ripped
9 | (42/43) Accurately ripped
[свернуть]

Файл CUE

REM GENRE Disco
REM DATE 1980
REM DISCID 7508BB09
REM COMMENT "ExactAudioCopy v1.3"
PERFORMER "Donna Summer"
TITLE "Walk Away"
REM COMPOSER ""
FILE "Donna Summer - Walk Away.flac" WAVE
TRACK 01 AUDIO
TITLE "Bad Girls"
PERFORMER "Donna Summer"
REM COMPOSER ""
INDEX 00 00:00:00
INDEX 01 00:00:32
TRACK 02 AUDIO
TITLE "Hot Stuff"
PERFORMER "Donna Summer"
REM COMPOSER ""
INDEX 00 03:54:45
INDEX 01 03:56:07
TRACK 03 AUDIO
TITLE "On The Radio"
PERFORMER "Donna Summer"
REM COMPOSER ""
INDEX 00 07:40:31
INDEX 01 07:41:57
TRACK 04 AUDIO
TITLE "I Feel Love"
PERFORMER "Donna Summer"
REM COMPOSER ""
INDEX 00 11:45:40
INDEX 01 11:46:32
TRACK 05 AUDIO
TITLE "Walk Away"
PERFORMER "Donna Summer"
REM COMPOSER ""
INDEX 00 17:26:09
INDEX 01 17:27:32
TRACK 06 AUDIO
TITLE "Last Dance"
PERFORMER "Donna Summer"
REM COMPOSER ""
INDEX 00 21:08:42
INDEX 01 21:09:47
TRACK 07 AUDIO
TITLE "Sunset People"
PERFORMER "Donna Summer"
REM COMPOSER ""
INDEX 00 24:28:28
INDEX 01 24:29:32
TRACK 08 AUDIO
TITLE "MacArthur Park"
PERFORMER "Donna Summer"
REM COMPOSER ""
INDEX 00 28:26:67
INDEX 01 28:27:70
TRACK 09 AUDIO
TITLE "Our Love"
PERFORMER "Donna Summer"
REM COMPOSER ""
INDEX 00 32:22:38
INDEX 01 32:23:20
[свернуть]

Лог проверки качества

AUDIOCHECKER v2.0 beta (build 457) - by Dester -
~~~~~~~~~~~~~~~~~~~~~~~~~~~~~~~~~~
-=== НЕ РЕДАКТИРУЙТЕ ЭТОТ ФАЙЛ! ===-

Путь: ...\1980 - Walk Away [810 011-2]_

1 -=- Donna Summer - Walk Away.flac -=- MPEG (95%)

23554964
[свернуть]

Спектр частот

[свернуть]

Скачать Donna Summer - Walk Away. Collector's Edition. The Best Of 1977-1980



password: sergych
[свернуть]

Контрольная сумма (хеш-сумма) архива

MD5: eabe6cc6ab2be02e24e8733a8f040d3d
[свернуть]
My opinion of release: 10/10
__________________
TAIFUN.Wings of Soul

Вверх
2 пользователя(ей) сказали cпасибо:
johnsilver (08.06.2017), swint68 (09.06.2017)
Похожие темы
Тема Автор Раздел Ответов Последнее сообщение
Сборник Donna Summer - The Donna Summer Anthology sergych Disco 11 21.05.2017 20:48
Сборник Donna Summer - The Best Of Donna Summer {20th Century Masters. The Millennium Collection} sergych Disco 0 01.11.2015 15:37
Релиз David Bowie – Hours: The Collector’s Edition PUPOKIN Pop Rock 0 22.07.2012 10:30
Donna Summer - The Journey: The Very Best of Donna Summer sergych Disco 0 13.07.2008 15:37
Donna Summer sergych Club & Electronic Music [FAQ] 0 13.06.2008 18:59


Метки
1980 , dance , disco , donna summer , pop , walk away. collector's edition. the best of 1977-1980

Опции темы

Ваши права в разделе
Вы не можете создавать новые темы
Вы не можете отвечать в темах
Вы не можете прикреплять вложения
Вы не можете редактировать свои сообщения

Быстрый переход



Текущее время: 21:09. Часовой пояс GMT +3.
Powered by vBulletin® Version 3.8.7
Copyright ©2000 - 2017, vBulletin Solutions, Inc. Перевод: zCarot
© 2008 - 2017 Taifun With Song
Яндекс.Метрика