TAIFUN With Song
Вернуться   TAIFUN With Song > Music (обменник) > Rock > Russian Rock
Расширенный поиск
Russian Rock Альбомы рок-групп стран СНГ

А знаете ли Вы, что...
Какой знаменитый музыкант играл в метро, и люди почти не проявили интерес к его музыке?
«Один из лучших скрипачей американец Джошуа Белл 12 января 2007 года согласился принять участие в эксперименте — утром на протяжении 45 минут он играл в вестибюле станции метро под видом обычного уличного музыканта. Из тысячи прошедших мимо людей только семь заинтересовались музыкой.»
 
Опции темы

  #1
Старый 28.05.2017, 10:02
sergych
Координатор
Досье
 
Аватар для sergych
Релиз Аквариум - Библиотека Вавилона. История Аквариума, том IV


1993(1999) - Аквариум - Библиотека Вавилона. История Аквариума, том IV




Исполнитель/Artist: Аквариум
Альбом/Album: Библиотека Вавилона. История Аквариума, том IV
Год/Year: 1993
Ремастеринг/Remaster: 1999
Жанр/Genre: russian rock
Страна/Country: Россия
Рекорд-лейбл/Record label: SoLyd Records
Номер в каталоге/Catalogue #: SLR003 / SLR 0191
Формат/Format: Free Lossless Audio Codec (*.flac)
Качество/Quality: Lossless
Тип рипа/RIP Type: image+.cue
Продолжительность/Length: 00:50:01
Источник/Source: Собственный рип
Размер/Size: 304.7 MB

Сканы в комплекте

Треклист

01. Голубой дворник [0:04:52.53]
02. Меня зовут Смерть [0:02:11.47]
03. Джунгли [0:05:24.33]
04. Ангел всенародного похмелья [0:02:36.72]
05. Козлы [0:03:26.30]
06. То, что я должен сказать [0:02:40.30]
07. Танец [0:03:29.38]
08. Четырнадцать [0:03:45.17]
09. Встань у реки [0:03:28.08]
10. Глядя в телевизор [0:03:15.30]
11. Сестра [0:04:20.62]
12. Митин вальс [0:03:02.05]
13. Сонет [0:03:54.05]
14. Серебро Господа моего [0:03:33.23]
[свернуть]

youtube.com

[свернуть]

Исполнители/Performers

Дюша — флейта (7, 14), фортепиано (1), голос (8, 9, 10, 11, 14)
Фан — бас (7 — 10), перкуссия (10)
Сева — виолончель (7, 8, 10, 13)
Пётр — барабаны (1, 7 — 9, 11)
Ляпин — гитара (7 — 9, 11)
Щураков — аккордеон (12)
Березовой — бас (1, 12)
БГ — голос, гитара
Тит — бас (2, 3, 5, 11, 14)
Алексей Рацен — барабаны (3, 5)
Сакмаров — флейта (2), саксофон (3)
Вихорев — перкуссия (2), контрабас (3)
Решетин — скрипка (4)
Зубарев — гитара (2, 5)
Александр Беренсон — труба (11)
Андрей Тропилло — классическая гитара (13)
В.Цимбалист — тромбон (3)
Е.Щуракова — домра (12)
Ольга Эльдарова — арфа (1)
Оркестранты Мосфильма — тромбон и труба (1)
Звук — В.Венгеровский, О.Гончаров, В.Динов, В.Егоров, В.Лукичев, А.Мартисов, А.Рацен, М.Подтакуй, А.Тропилло
[свернуть]

EAC лог

Exact Audio Copy V1.3 from 2. September 2016

EAC extraction logfile from 28. May 2017, 10:28

Аквариум / Библиотека Вавилона: История Аквариума, том IV

Used drive : PLEXTOR DVDR PX-716A Adapter: 1 ID: 0

Read mode : Secure
Utilize accurate stream : Yes
Defeat audio cache : Yes
Make use of C2 pointers : No

Read offset correction : 30
Overread into Lead-In and Lead-Out : No
Fill up missing offset samples with silence : Yes
Delete leading and trailing silent blocks : No
Null samples used in CRC calculations : Yes
Used interface : Native Win32 interface for Win NT & 2000

Used output format : User Defined Encoder
Selected bitrate : 1024 kBit/s
Quality : High
Add ID3 tag : No
Command line compressor : C:\Program Files (x86)\Exact Audio Copy\FLAC\FLAC.EXE
Additional command line options : -6 -V -T "ARTIST=%artist%" -T "TITLE=%title%" -T "ALBUM=%albumtitle%" -T "DATE=%year%" -T "TRACKNUMBER=%tracknr%" -T "GENRE=%genre%" -T "COMMENT=%comment%" -T "BAND=%albuminterpret%" -T "ALBUMARTIST=%albuminterpret%" -T "COMPOSER=%composer%" %haslyrics%--tag-from-file=LYRICS="%lyricsfile%"%haslyrics% -T "DISCNUMBER=%cdnumber%" -T "TOTALDISCS=%totalcds%" -T "TOTALTRACKS=%numtracks%" %hascover%--picture="%coverfile%"%hascover% %source% -o %dest%


TOC of the extracted CD

Track | Start | Length | Start sector | End sector
---------------------------------------------------------
1 | 0:00.07 | 4:52.53 | 7 | 21959
2 | 4:52.60 | 2:11.47 | 21960 | 31831
3 | 7:04.32 | 5:24.33 | 31832 | 56164
4 | 12:28.65 | 2:36.72 | 56165 | 67936
5 | 15:05.62 | 3:26.30 | 67937 | 83416
6 | 18:32.17 | 2:40.30 | 83417 | 95446
7 | 21:12.47 | 3:29.38 | 95447 | 111159
8 | 24:42.10 | 3:45.17 | 111160 | 128051
9 | 28:27.27 | 3:28.08 | 128052 | 143659
10 | 31:55.35 | 3:15.30 | 143660 | 158314
11 | 35:10.65 | 4:20.62 | 158315 | 177876
12 | 39:31.52 | 3:02.05 | 177877 | 191531
13 | 42:33.57 | 3:54.05 | 191532 | 209086
14 | 46:27.62 | 3:33.23 | 209087 | 225084


Range status and errors

Selected range

Filename C:\mm\Аквариум\1993(1999) - Библиотека Вавилона [SLR 0191]\Аквариум - Библиотека Вавилона. История Аквариума, том IV.wav

Peak level 100.0 %
Extraction speed 7.9 X
Range quality 100.0 %
Test CRC 2E24091D
Copy CRC 2E24091D
Copy OK

No errors occurred


AccurateRip summary

Track 1 accurately ripped (confidence 8) [7811169B] (AR v2)
Track 2 accurately ripped (confidence 8) [BA3287E1] (AR v2)
Track 3 accurately ripped (confidence 8) [55658E04] (AR v2)
Track 4 accurately ripped (confidence 8) [62374AD5] (AR v2)
Track 5 accurately ripped (confidence 8) [9FE58BAF] (AR v2)
Track 6 accurately ripped (confidence 8) [2740D6AE] (AR v2)
Track 7 accurately ripped (confidence 8) [5BC12135] (AR v2)
Track 8 accurately ripped (confidence 8) [CA6D21E3] (AR v2)
Track 9 accurately ripped (confidence 8) [59E213AB] (AR v2)
Track 10 accurately ripped (confidence 8) [8894AC3E] (AR v2)
Track 11 accurately ripped (confidence 8) [40B12831] (AR v2)
Track 12 accurately ripped (confidence 8) [2B9D5DC8] (AR v2)
Track 13 accurately ripped (confidence 8) [851CFB41] (AR v2)
Track 14 accurately ripped (confidence 8) [4B690185] (AR v2)

All tracks accurately ripped

End of status report

---- CUETools DB Plugin V2.1.6

[CTDB TOCID: AKFBJfIvqyDrkJ2Q0_ayTGEmIjM-] found
Submit result: AKFBJfIvqyDrkJ2Q0_ayTGEmIjM- has been confirmed
Track | CTDB Status
1 | ( 7/11) Accurately ripped
2 | ( 7/11) Accurately ripped
3 | ( 7/11) Accurately ripped
4 | ( 7/11) Accurately ripped
5 | ( 7/11) Accurately ripped
6 | ( 7/11) Accurately ripped
7 | ( 7/11) Accurately ripped
8 | ( 7/11) Accurately ripped
9 | ( 7/11) Accurately ripped
10 | ( 7/11) Accurately ripped
11 | ( 7/11) Accurately ripped
12 | ( 7/11) Accurately ripped
13 | ( 7/11) Accurately ripped
14 | ( 7/11) Accurately ripped
[свернуть]

Файл CUE

REM GENRE Rock
REM DATE 1993
REM DISCID C20BB90E
REM COMMENT "ExactAudioCopy v1.3"
PERFORMER "Аквариум"
TITLE "Библиотека Вавилона: История Аквариума, том IV"
REM COMPOSER ""
FILE "Аквариум - Библиотека Вавилона. История Аквариума, том IV.flac" WAVE
TRACK 01 AUDIO
TITLE "Голубой дворник"
PERFORMER "Аквариум"
REM COMPOSER ""
INDEX 00 00:00:00
INDEX 01 00:00:07
TRACK 02 AUDIO
TITLE "Меня зовут Смерть"
PERFORMER "Аквариум"
REM COMPOSER ""
INDEX 00 04:52:27
INDEX 01 04:52:60
TRACK 03 AUDIO
TITLE "Джунгли"
PERFORMER "Аквариум"
REM COMPOSER ""
INDEX 00 07:03:07
INDEX 01 07:04:32
TRACK 04 AUDIO
TITLE "Ангел всенародного похмелья"
PERFORMER "Аквариум"
REM COMPOSER ""
INDEX 00 12:27:30
INDEX 01 12:28:65
TRACK 05 AUDIO
TITLE "Козлы"
PERFORMER "Аквариум"
REM COMPOSER ""
INDEX 00 15:04:47
INDEX 01 15:05:62
TRACK 06 AUDIO
TITLE "То, что я должен сказать"
PERFORMER "Аквариум"
REM COMPOSER ""
INDEX 00 18:29:30
INDEX 01 18:32:17
TRACK 07 AUDIO
TITLE "Танец"
PERFORMER "Аквариум"
REM COMPOSER ""
INDEX 00 21:11:32
INDEX 01 21:12:47
TRACK 08 AUDIO
TITLE "Четырнадцать"
PERFORMER "Аквариум"
REM COMPOSER ""
INDEX 00 24:39:62
INDEX 01 24:42:10
TRACK 09 AUDIO
TITLE "Встань у реки"
PERFORMER "Аквариум"
REM COMPOSER ""
INDEX 00 28:26:12
INDEX 01 28:27:27
TRACK 10 AUDIO
TITLE "Глядя в телевизор"
PERFORMER "Аквариум"
REM COMPOSER ""
INDEX 00 31:53:25
INDEX 01 31:55:35
TRACK 11 AUDIO
TITLE "Сестра"
PERFORMER "Аквариум"
REM COMPOSER ""
INDEX 00 35:10:13
INDEX 01 35:10:65
TRACK 12 AUDIO
TITLE "Митин вальс"
PERFORMER "Аквариум"
REM COMPOSER ""
INDEX 00 39:30:45
INDEX 01 39:31:52
TRACK 13 AUDIO
TITLE "Сонет"
PERFORMER "Аквариум"
REM COMPOSER ""
INDEX 00 42:31:57
INDEX 01 42:33:57
TRACK 14 AUDIO
TITLE "Серебро Господа моего"
PERFORMER "Аквариум"
REM COMPOSER ""
INDEX 00 46:26:37
INDEX 01 46:27:62
[свернуть]

Лог проверки качества

AUDIOCHECKER v2.0 beta (build 457) - by Dester - [Ссылки могут видеть только зарегистрированные пользователи. ]
~~~~~~~~~~~~~~~~~~~~~~~~~~~~~~~~~~
-=== НЕ РЕДАКТИРУЙТЕ ЭТОТ ФАЙЛ! ===-

Путь: ...\1993(1999) - Библиотека Вавилона [SLR 0191]

1 -=- Аквариум - Библиотека Вавилона. История Аквариума, том IV.flac -=- CDDA (100%)

250642692
[свернуть]

Спектр частот

[свернуть]

Скачать Аквариум - Библиотека Вавилона. История Аквариума, том IV

[Ссылки могут видеть только зарегистрированные пользователи. ]

password: sergych
[свернуть]

Контрольная сумма (хеш-сумма) архива

MD5: 8cbb5ee095fb751e6bc5262aa73a5588
[свернуть]
My opinion of release: 10/10
__________________
TAIFUN.Wings of Soul

Вверх
Пользователь сказал cпасибо:
swint68 (28.05.2017)
Похожие темы
Тема Автор Раздел Ответов Последнее сообщение
Альбом Аквариум - Акустика (История Аквариума, Том I) sergych Russian Rock 0 12.12.2015 20:40
Релиз Борис Гребенщиков и Аквариум - Огонь Вавилона PUPOKIN Russian Rock 0 14.12.2013 10:22
Альбом Аквариум - Тайная История Пчеловодства RRock-melomanXP Russian Rock 0 27.12.2012 20:21
Альбом Аквариум - История "Аквариума". Архив, т. 3 sergych Russian Rock 0 08.01.2009 06:48


Метки
1993 , russian rock , аквариум , библиотека вавилона. история аквариума том iv

Опции темы

Ваши права в разделе
Вы не можете создавать новые темы
Вы не можете отвечать в темах
Вы не можете прикреплять вложения
Вы не можете редактировать свои сообщения

Быстрый переход



Текущее время: 12:51. Часовой пояс GMT +3.
Powered by vBulletin® Version 3.8.7
Copyright ©2000 - 2017, vBulletin Solutions, Inc. Перевод: zCarot
© 2008 - 2017 Taifun With Song
Яндекс.Метрика