TAIFUN With Song
Вернуться   TAIFUN With Song > Music (обменник) > Другие направления музыки > Jazz и Blues
Расширенный поиск
Jazz и Blues Гибкая ритмика, импровизационное начало, гармонии и мелодии - все это Jazz. Blues - жизнеутверждающая музыка, рожденная из душевной боли

А знаете ли Вы, что...
Горький и Шаляпин пробовались в хор!
«Шаляпин и Горький практически в одно и то же время пробовались в хор. Горького взяли, Шаляпина нет.»
 
Опции темы

  #1
Старый 24.05.2017, 20:47
sergych
Координатор
Досье
 
Аватар для sergych
Релиз John Pizzarelli with The George Shearing Quintet - The Rare Delight of You


2002 - John Pizzarelli with The George Shearing Quintet - The Rare Delight of You




Исполнитель/Artist: John Pizzarelli with The George Shearing Quintet
Альбом/Album: The Rare Delight of You
Год/Year: 2002
Жанр/Genre: Jazz, Swing
Страна/Country: Австрия
Рекорд-лейбл/Record label: TELARC
Номер в каталоге/Catalogue #: CD-83546
Формат/Format: Free Lossless Audio Codec (*.flac)
Качество/Quality: Lossless
Тип рипа/RIP Type: image+.cue
Продолжительность/Length: 00:56:46
Источник/Source: Собственный рип
Размер/Size: 309.1 MB

Сканы в комплекте

Треклист

01. If Dreams Come True [0:03:50.15]
02. The Lady's In Love With You [0:02:43.37]
03. Everything Happens To Me [0:03:46.33]
04. Lulu's Back In Town [0:02:56.37]
05. Something To Remember You By [0:04:53.05]
06. Lemon Twist [0:03:54.33]
07. Lost April [0:04:11.42]
08. Problem [0:05:45.20]
09. The Rare Delight Of You [0:04:03.65]
10. Shine On Your Shoes [0:03:33.00]
11. Indian Summer [0:04:06.60]
12. Be Careful It's My Heart [0:02:39.00]
13. September In The Rain [0:04:01.10]
14. I Predict (2001) [0:02:42.38]
15. Lucky To Be Me [0:03:38.65]
[свернуть]

youtube.com

[свернуть]

Исполнители/Performers

John Pizzarelli – vocals, guitar
George Shearing – piano
Ted Piltzecker – vibraphone
Reg Schwager – guitar
Neil Swainson – double-bass
Dennis Mackrel – drums
[свернуть]

EAC лог

Exact Audio Copy V1.3 from 2. September 2016

EAC extraction logfile from 24. May 2017, 21:13

John Pizzarelli with The George Shearing Quintet / The Rare Delight of You

Used drive : PLEXTOR DVDR PX-716A Adapter: 1 ID: 0

Read mode : Secure
Utilize accurate stream : Yes
Defeat audio cache : Yes
Make use of C2 pointers : No

Read offset correction : 30
Overread into Lead-In and Lead-Out : No
Fill up missing offset samples with silence : Yes
Delete leading and trailing silent blocks : No
Null samples used in CRC calculations : Yes
Used interface : Native Win32 interface for Win NT & 2000

Used output format : User Defined Encoder
Selected bitrate : 1024 kBit/s
Quality : High
Add ID3 tag : No
Command line compressor : C:\Program Files (x86)\Exact Audio Copy\FLAC\FLAC.EXE
Additional command line options : -6 -V -T "ARTIST=%artist%" -T "TITLE=%title%" -T "ALBUM=%albumtitle%" -T "DATE=%year%" -T "TRACKNUMBER=%tracknr%" -T "GENRE=%genre%" -T "COMMENT=%comment%" -T "BAND=%albuminterpret%" -T "ALBUMARTIST=%albuminterpret%" -T "COMPOSER=%composer%" %haslyrics%--tag-from-file=LYRICS="%lyricsfile%"%haslyrics% -T "DISCNUMBER=%cdnumber%" -T "TOTALDISCS=%totalcds%" -T "TOTALTRACKS=%numtracks%" %hascover%--picture="%coverfile%"%hascover% %source% -o %dest%


TOC of the extracted CD

Track | Start | Length | Start sector | End sector
---------------------------------------------------------
1 | 0:00.00 | 3:50.15 | 0 | 17264
2 | 3:50.15 | 2:43.37 | 17265 | 29526
3 | 6:33.52 | 3:46.33 | 29527 | 46509
4 | 10:20.10 | 2:56.37 | 46510 | 59746
5 | 13:16.47 | 4:53.05 | 59747 | 81726
6 | 18:09.52 | 3:54.33 | 81727 | 99309
7 | 22:04.10 | 4:11.42 | 99310 | 118176
8 | 26:15.52 | 5:45.20 | 118177 | 144071
9 | 32:00.72 | 4:03.65 | 144072 | 162361
10 | 36:04.62 | 3:33.00 | 162362 | 178336
11 | 39:37.62 | 4:06.60 | 178337 | 196846
12 | 43:44.47 | 2:39.00 | 196847 | 208771
13 | 46:23.47 | 4:01.10 | 208772 | 226856
14 | 50:24.57 | 2:42.38 | 226857 | 239044
15 | 53:07.20 | 3:38.65 | 239045 | 255459


Range status and errors

Selected range

Filename C:\mm\John Pizzarelli\2002 - The Rare Delight of You (with The George Shearing Quintet) [CD-83546]\John Pizzarelli with The George Shearing Quintet - The Rare Delight of You.wav

Peak level 87.3 %
Extraction speed 12.8 X
Range quality 100.0 %
Test CRC 0E24A16D
Copy CRC 0E24A16D
Copy OK

No errors occurred


AccurateRip summary

Track 1 accurately ripped (confidence 10) [585DE875] (AR v2)
Track 2 accurately ripped (confidence 10) [1079097E] (AR v2)
Track 3 accurately ripped (confidence 10) [0C01D6D9] (AR v2)
Track 4 accurately ripped (confidence 10) [D07DAE1A] (AR v2)
Track 5 accurately ripped (confidence 10) [1596BD7D] (AR v2)
Track 6 accurately ripped (confidence 10) [633F0339] (AR v2)
Track 7 accurately ripped (confidence 10) [765CCB0F] (AR v2)
Track 8 accurately ripped (confidence 10) [FF75E6AD] (AR v2)
Track 9 accurately ripped (confidence 10) [A44C993D] (AR v2)
Track 10 accurately ripped (confidence 10) [43237BE5] (AR v2)
Track 11 accurately ripped (confidence 10) [E2FD6D30] (AR v2)
Track 12 accurately ripped (confidence 10) [6168E62F] (AR v2)
Track 13 accurately ripped (confidence 10) [C322C860] (AR v2)
Track 14 accurately ripped (confidence 10) [DDC85645] (AR v2)
Track 15 accurately ripped (confidence 10) [64DA5AB1] (AR v2)

All tracks accurately ripped

End of status report

---- CUETools DB Plugin V2.1.6

[CTDB TOCID: SL8ciPMObBj_R7_jjj_zOv9SAIQ-] found
Submit result: SL8ciPMObBj_R7_jjj_zOv9SAIQ- has been confirmed
Track | CTDB Status
1 | (32/32) Accurately ripped
2 | (31/32) Accurately ripped
3 | (31/32) Accurately ripped
4 | (32/32) Accurately ripped
5 | (31/32) Accurately ripped
6 | (30/32) Accurately ripped
7 | (31/32) Accurately ripped
8 | (32/32) Accurately ripped
9 | (31/32) Accurately ripped
10 | (31/32) Accurately ripped
11 | (31/32) Accurately ripped
12 | (31/32) Accurately ripped
13 | (30/32) Accurately ripped
14 | (32/32) Accurately ripped
15 | (32/32) Accurately ripped
[свернуть]

Файл CUE

REM GENRE Jazz
REM DATE 2002
REM DISCID DF0D4E0F
REM COMMENT "ExactAudioCopy v1.3"
PERFORMER "John Pizzarelli with The George Shearing Quintet"
TITLE "The Rare Delight of You"
REM COMPOSER ""
FILE "John Pizzarelli with The George Shearing Quintet - The Rare Delight of You.flac" WAVE
TRACK 01 AUDIO
TITLE "If Dreams Come True"
PERFORMER "John Pizzarelli with The George Shearing Quintet"
REM COMPOSER ""
INDEX 01 00:00:00
TRACK 02 AUDIO
TITLE "The Lady's In Love With You"
PERFORMER "John Pizzarelli with The George Shearing Quintet"
REM COMPOSER ""
INDEX 00 03:48:37
INDEX 01 03:50:15
TRACK 03 AUDIO
TITLE "Everything Happens To Me"
PERFORMER "John Pizzarelli with The George Shearing Quintet"
REM COMPOSER ""
INDEX 00 06:31:30
INDEX 01 06:33:52
TRACK 04 AUDIO
TITLE "Lulu's Back In Town"
PERFORMER "John Pizzarelli with The George Shearing Quintet"
REM COMPOSER ""
INDEX 00 10:18:25
INDEX 01 10:20:10
TRACK 05 AUDIO
TITLE "Something To Remember You By"
PERFORMER "John Pizzarelli with The George Shearing Quintet"
REM COMPOSER ""
INDEX 00 13:14:27
INDEX 01 13:16:47
TRACK 06 AUDIO
TITLE "Lemon Twist"
PERFORMER "John Pizzarelli with The George Shearing Quintet"
REM COMPOSER ""
INDEX 00 18:05:42
INDEX 01 18:09:52
TRACK 07 AUDIO
TITLE "Lost April"
PERFORMER "John Pizzarelli with The George Shearing Quintet"
REM COMPOSER ""
INDEX 00 22:02:35
INDEX 01 22:04:10
TRACK 08 AUDIO
TITLE "Problem"
PERFORMER "John Pizzarelli with The George Shearing Quintet"
REM COMPOSER ""
INDEX 00 26:12:25
INDEX 01 26:15:52
TRACK 09 AUDIO
TITLE "The Rare Delight Of You"
PERFORMER "John Pizzarelli with The George Shearing Quintet"
REM COMPOSER ""
INDEX 00 32:00:40
INDEX 01 32:00:72
TRACK 10 AUDIO
TITLE "Shine On Your Shoes"
PERFORMER "John Pizzarelli with The George Shearing Quintet"
REM COMPOSER ""
INDEX 00 36:02:10
INDEX 01 36:04:62
TRACK 11 AUDIO
TITLE "Indian Summer"
PERFORMER "John Pizzarelli with The George Shearing Quintet"
REM COMPOSER ""
INDEX 00 39:35:15
INDEX 01 39:37:62
TRACK 12 AUDIO
TITLE "Be Careful It's My Heart"
PERFORMER "John Pizzarelli with The George Shearing Quintet"
REM COMPOSER ""
INDEX 00 43:42:20
INDEX 01 43:44:47
TRACK 13 AUDIO
TITLE "September In The Rain"
PERFORMER "John Pizzarelli with The George Shearing Quintet"
REM COMPOSER ""
INDEX 00 46:21:07
INDEX 01 46:23:47
TRACK 14 AUDIO
TITLE "I Predict (2001)"
PERFORMER "John Pizzarelli with The George Shearing Quintet"
REM COMPOSER ""
INDEX 00 50:21:42
INDEX 01 50:24:57
TRACK 15 AUDIO
TITLE "Lucky To Be Me"
PERFORMER "John Pizzarelli with The George Shearing Quintet"
REM COMPOSER ""
INDEX 00 53:04:27
INDEX 01 53:07:20
[свернуть]

Лог проверки качества

AUDIOCHECKER v2.0 beta (build 457) - by Dester - [Ссылки могут видеть только зарегистрированные пользователи. ]
~~~~~~~~~~~~~~~~~~~~~~~~~~~~~~~~~~
-=== НЕ РЕДАКТИРУЙТЕ ЭТОТ ФАЙЛ! ===-

Путь: ...\2002 - The Rare Delight of You (with The George Shearing Quintet) [CD-83546]

1 -=- John Pizzarelli with The George Shearing Quintet - The Rare Delight of You.flac -=- CDDA (99%)

125914884
[свернуть]

Спектр частот

[свернуть]

Скачать John Pizzarelli with The George Shearing Quintet - The Rare Delight of You

[Ссылки могут видеть только зарегистрированные пользователи. ]

password: sergych
[свернуть]

Контрольная сумма (хеш-сумма) архива

MD5: fcfa998b806852d814b784b0316ce8f1
[свернуть]
My opinion of release: 10/10
__________________
TAIFUN.Wings of Soul

Вверх
2 пользователя(ей) сказали cпасибо:
johnsilver (25.05.2017), swint68 (25.05.2017)
Похожие темы
Тема Автор Раздел Ответов Последнее сообщение
Альбом John Pizzarelli - Let There Be Love sergych Jazz и Blues 0 30.03.2015 19:15
Альбом John Pizzarelli - One Night With You. The John Pizzarelli Collection sergych Jazz и Blues 0 20.12.2014 08:45
Альбом John Pizzarelli - All Of Me sergych Jazz и Blues 0 27.03.2014 18:40
Альбом John Pizzarelli - After Hours sergych Jazz и Blues 0 23.11.2013 10:47
Сборник John Pizzarelli - The Best of John Pizzarelli. I Like Jersey Best sergych Jazz и Blues 0 16.10.2013 21:40


Метки
2002 , george shearing , jazz , john pizzarelli , swing , the rare delight of you

Опции темы

Ваши права в разделе
Вы не можете создавать новые темы
Вы не можете отвечать в темах
Вы не можете прикреплять вложения
Вы не можете редактировать свои сообщения

Быстрый переход



Текущее время: 08:15. Часовой пояс GMT +3.
Powered by vBulletin® Version 3.8.7
Copyright ©2000 - 2017, vBulletin Solutions, Inc. Перевод: zCarot
© 2008 - 2017 Taifun With Song
Яндекс.Метрика