TAIFUN With Song
Вернуться   TAIFUN With Song > Music (обменник) > Rock > Hard Rock
Расширенный поиск
Hard Rock То, что может восприниматься слушателем как «тяжесть» в хард-роке, достигается, в частности, за счет специфического звучания электрогитары (с такими эффектами, как например, дисторшн и овердрайв) и работы ритм-секции. «Классический» хард-рок обрёл формы в конце 1960-х — начале 1970-х годов в Великобритании. Классический хард-рок отличается от хеви-металла более мелодичным звучанием.

А знаете ли Вы, что...
Зачем в Англии 19 века надевали чехлы на ножки роялей?
«В пуританской Англии 19 века из общественной жизни старательно изгонялось всё, что могло показаться хоть сколько-нибудь эротичным. Так, во время концертов на ножки роялей надевали чехлы, чтобы никто, глядя на эти голые ножки, не задумался о чём-нибудь непристойном.»
 
Опции темы

  #1
Старый 19.05.2017, 18:48
sergych
Координатор
Досье
 
Аватар для sergych
Релиз Aerosmith - Permanent Vacation


1987(1994) - Aerosmith - Permanent Vacation




Исполнитель/Artist: Aerosmith
Альбом/Album: Permanent Vacation
Год/Year: 1987
Ремастеринг/Remaster: 1994
Жанр/Genre: Hard rock, glam metal, blues rock
Страна/Country: Япония
Рекорд-лейбл/Record label: Geffen / MCA Victor
Номер в каталоге/Catalogue #: MVCZ-71
Формат/Format: Free Lossless Audio Codec (*.flac)
Качество/Quality: Lossless
Тип рипа/RIP Type: image+.cue
Продолжительность/Length: 00:52:00
Источник/Source: Собственный рип
Размер/Size: 443.6 MB

Сканы в комплекте

Треклист

01. Heart's Done Time [0:04:42.38]
02. Magic Touch [0:04:37.37]
03. Rag Doll [0:04:25.55]
04. Simoriah [0:03:22.55]
05. Dude (Looks Like a Lady) [0:04:25.43]
06. St. John [0:04:13.70]
07. Hangman Jury [0:05:33.55]
08. Girl Keeps Coming Apart [0:04:13.10]
09. Angel [0:05:08.55]
10. Permanent Vacation [0:04:49.42]
11. I'm Down [0:02:19.73]
12. The Movie [0:04:06.50]
[свернуть]

youtube.com

[свернуть]

Исполнители/Performers

Aerosmith
Steven Tyler – lead vocals, piano, harmonica, organ, plunger mute
Joe Perry – guitar, backing vocals, pedal steel guitar on "Rag Doll"
Brad Whitford – guitar
Tom Hamilton – bass guitar
Joey Kramer – drums

Additional musicians
Drew Arnott – mellotron on "Angel" and "The Movie"
Tom Keenlyside – clarinet, tenor saxophone, horn arrangement on "Dude (Looks Like a Lady)" and "Rag Doll"
Ian Putz – baritone saxophone on "Dude (Looks Like a Lady)" and "Rag Doll"
Bob Rogers – trombone on "Dude (Looks Like a Lady)" and "Rag Doll"
Henry Christian – trumpet
Bruce Fairbairn – trumpet, cello, background vocals
Scott Fairbairn – cello
Mike Fraser – plunger mute
Morgan Rael – steel drums
Jim Vallance – organ on "Rag Doll" and "Simoriah"
Christine Arnott - Backing vocals on "The Movie"
[свернуть]

EAC лог

Exact Audio Copy V1.3 from 2. September 2016

EAC extraction logfile from 15. May 2017, 21:27

Aerosmith / Permanent Vacation

Used drive : PLEXTOR DVDR PX-716A Adapter: 1 ID: 0

Read mode : Secure
Utilize accurate stream : Yes
Defeat audio cache : Yes
Make use of C2 pointers : No

Read offset correction : 30
Overread into Lead-In and Lead-Out : No
Fill up missing offset samples with silence : Yes
Delete leading and trailing silent blocks : No
Null samples used in CRC calculations : Yes
Used interface : Native Win32 interface for Win NT & 2000

Used output format : User Defined Encoder
Selected bitrate : 1024 kBit/s
Quality : High
Add ID3 tag : No
Command line compressor : C:\Program Files (x86)\Exact Audio Copy\FLAC\FLAC.EXE
Additional command line options : -6 -V -T "ARTIST=%artist%" -T "TITLE=%title%" -T "ALBUM=%albumtitle%" -T "DATE=%year%" -T "TRACKNUMBER=%tracknr%" -T "GENRE=%genre%" -T "COMMENT=%comment%" -T "BAND=%albuminterpret%" -T "ALBUMARTIST=%albuminterpret%" -T "COMPOSER=%composer%" %haslyrics%--tag-from-file=LYRICS="%lyricsfile%"%haslyrics% -T "DISCNUMBER=%cdnumber%" -T "TOTALDISCS=%totalcds%" -T "TOTALTRACKS=%numtracks%" %hascover%--picture="%coverfile%"%hascover% %source% -o %dest%


TOC of the extracted CD

Track | Start | Length | Start sector | End sector
---------------------------------------------------------
1 | 0:00.37 | 4:42.38 | 37 | 21224
2 | 4:43.00 | 4:37.37 | 21225 | 42036
3 | 9:20.37 | 4:25.55 | 42037 | 61966
4 | 13:46.17 | 3:22.55 | 61967 | 77171
5 | 17:08.72 | 4:25.43 | 77172 | 97089
6 | 21:34.40 | 4:13.70 | 97090 | 116134
7 | 25:48.35 | 5:33.55 | 116135 | 141164
8 | 31:22.15 | 4:13.10 | 141165 | 160149
9 | 35:35.25 | 5:08.55 | 160150 | 183304
10 | 40:44.05 | 4:49.42 | 183305 | 205021
11 | 45:33.47 | 2:19.73 | 205022 | 215519
12 | 47:53.45 | 4:06.50 | 215520 | 234019


Range status and errors

Selected range

Filename C:\mm\Aerosmith\1987(1994) - Permanent Vacation [MVCZ-71]\Aerosmith - Permanent Vacation.wav

Peak level 98.4 %
Extraction speed 12.6 X
Range quality 100.0 %
Test CRC 49C88E4D
Copy CRC 49C88E4D
Copy OK

No errors occurred


AccurateRip summary

Track 1 accurately ripped (confidence 2) [03677120] (AR v1)
Track 2 accurately ripped (confidence 2) [A4E000C7] (AR v1)
Track 3 accurately ripped (confidence 2) [B78A0FDE] (AR v1)
Track 4 accurately ripped (confidence 2) [0D7C4880] (AR v1)
Track 5 accurately ripped (confidence 2) [CFF5B624] (AR v1)
Track 6 accurately ripped (confidence 2) [F6D450F6] (AR v1)
Track 7 accurately ripped (confidence 2) [D97CD024] (AR v1)
Track 8 accurately ripped (confidence 2) [C54E606E] (AR v1)
Track 9 accurately ripped (confidence 2) [F915BA34] (AR v1)
Track 10 accurately ripped (confidence 2) [14465F42] (AR v1)
Track 11 accurately ripped (confidence 2) [9B6859EC] (AR v1)
Track 12 accurately ripped (confidence 2) [A511D57D] (AR v1)

All tracks accurately ripped

End of status report

---- CUETools DB Plugin V2.1.6

[CTDB TOCID: naXp4ibaVavEZxLwO2u9bma0vs0-] disk not present in database
Submit result: naXp4ibaVavEZxLwO2u9bma0vs0- has been uploaded
[свернуть]

Файл CUE

REM GENRE "Hard Rock"
REM DATE 1987
REM DISCID AA0C300C
REM COMMENT "ExactAudioCopy v1.3"
PERFORMER "Aerosmith"
TITLE "Permanent Vacation"
REM COMPOSER ""
FILE "Aerosmith - Permanent Vacation.flac" WAVE
TRACK 01 AUDIO
TITLE "Heart's Done Time"
PERFORMER "Aerosmith"
REM COMPOSER ""
INDEX 00 00:00:00
INDEX 01 00:00:37
TRACK 02 AUDIO
TITLE "Magic Touch"
PERFORMER "Aerosmith"
REM COMPOSER ""
INDEX 01 04:43:00
TRACK 03 AUDIO
TITLE "Rag Doll"
PERFORMER "Aerosmith"
REM COMPOSER ""
INDEX 01 09:20:37
TRACK 04 AUDIO
TITLE "Simoriah"
PERFORMER "Aerosmith"
REM COMPOSER ""
INDEX 00 13:45:11
INDEX 01 13:46:17
TRACK 05 AUDIO
TITLE "Dude (Looks Like a Lady)"
PERFORMER "Aerosmith"
REM COMPOSER ""
INDEX 01 17:08:72
TRACK 06 AUDIO
TITLE "St. John"
PERFORMER "Aerosmith"
REM COMPOSER ""
INDEX 00 21:33:28
INDEX 01 21:34:40
TRACK 07 AUDIO
TITLE "Hangman Jury"
PERFORMER "Aerosmith"
REM COMPOSER ""
INDEX 00 25:45:38
INDEX 01 25:48:35
TRACK 08 AUDIO
TITLE "Girl Keeps Coming Apart"
PERFORMER "Aerosmith"
REM COMPOSER ""
INDEX 01 31:22:15
TRACK 09 AUDIO
TITLE "Angel"
PERFORMER "Aerosmith"
REM COMPOSER ""
INDEX 01 35:35:25
TRACK 10 AUDIO
TITLE "Permanent Vacation"
PERFORMER "Aerosmith"
REM COMPOSER ""
INDEX 00 40:42:48
INDEX 01 40:44:05
TRACK 11 AUDIO
TITLE "I'm Down"
PERFORMER "Aerosmith"
REM COMPOSER ""
INDEX 01 45:33:47
TRACK 12 AUDIO
TITLE "The Movie"
PERFORMER "Aerosmith"
REM COMPOSER ""
INDEX 00 47:53:31
INDEX 01 47:53:45
[свернуть]

Лог проверки качества

AUDIOCHECKER v2.0 beta (build 457) - by Dester - [Ссылки могут видеть только зарегистрированные пользователи. ]
~~~~~~~~~~~~~~~~~~~~~~~~~~~~~~~~~~
-=== НЕ РЕДАКТИРУЙТЕ ЭТОТ ФАЙЛ! ===-

Путь: ...\1987(1994) - Permanent Vacation [MVCZ-71]

1 -=- Aerosmith - Permanent Vacation.flac -=- CDDA (100%)

48311188
[свернуть]

Спектр частот

[свернуть]

Скачать Aerosmith - Permanent Vacation

[Ссылки могут видеть только зарегистрированные пользователи. ]

password: sergych
[свернуть]

Контрольная сумма (хеш-сумма) архива

MD5: f2970e3b8ac33a9ba34d0e0f57d3e520
[свернуть]
My opinion of release: 10/10
__________________
TAIFUN.Wings of Soul

Вверх
4 пользователя(ей) сказали cпасибо:
Показать список поблагодаривших
Похожие темы
Тема Автор Раздел Ответов Последнее сообщение
Сборник Aerosmith - The Best Of Aerosmith {20th Century Masters. The Millennium Collection} sergych Hard Rock 0 04.08.2015 21:49
Сборник Aerosmith - Young Lust: The Aerosmith Anthology aheron Hard Rock 0 30.05.2013 23:32
Альбом Ian Gillan - What I Did on My Vacation PUPOKIN Hard Rock 0 19.03.2010 09:49
Сборник Aerosmith - O, Yeah! (Ultimate Aerosmith Hits) sergych Hard Rock 0 31.07.2008 18:28
Сборник Aerosmith - The Very Best Of Aerosmith (Devil's Got A New Disguise) aheron Hard Rock 0 31.07.2008 18:28


Метки
1987 , aerosmith , blues rock , glam metal , hard rock , permanent vacation

Опции темы

Ваши права в разделе
Вы не можете создавать новые темы
Вы не можете отвечать в темах
Вы не можете прикреплять вложения
Вы не можете редактировать свои сообщения

Быстрый переход



Текущее время: 12:42. Часовой пояс GMT +3.
Powered by vBulletin® Version 3.8.7
Copyright ©2000 - 2017, vBulletin Solutions, Inc. Перевод: zCarot
© 2008 - 2017 Taifun With Song
Яндекс.Метрика