TAIFUN With Song
Вернуться   TAIFUN With Song > Music (обменник) > Rock > Hard Rock
Расширенный поиск
Hard Rock То, что может восприниматься слушателем как «тяжесть» в хард-роке, достигается, в частности, за счет специфического звучания электрогитары (с такими эффектами, как например, дисторшн и овердрайв) и работы ритм-секции. «Классический» хард-рок обрёл формы в конце 1960-х — начале 1970-х годов в Великобритании. Классический хард-рок отличается от хеви-металла более мелодичным звучанием.

А знаете ли Вы, что...
Почему Майкл Джексон получал половину доходов от продаж песен Beatles?
«В 1984 году на аукционе продавались издательские права на песни Beatles. Его выиграл Майкл Джексон, заплатив почти 50 миллионов долларов — больше, чем предлагал сам Пол Маккартни. С этого времени Джексон получал половину доходов от продаж Beatles (другую половину получали авторы песен, главным образом Маккартни). В 1995 году компания Sony выкупила у Джексона половину его прав, так что в последнее время он получал только четверть доходов.»
 
Опции темы

  #1
Старый 16.05.2017, 20:22
sergych
Координатор
Досье
 
Аватар для sergych
Релиз Kiss - Crazy Nights


1987(2005) - Kiss - Crazy Nights




Исполнитель/Artist: Kiss
Альбом/Album: Crazy Nights
Год/Year: 1987
Ремастеринг/Remaster: 2005
Жанр/Genre: Hard rock, glam metal
Страна/Country: Япония
Рекорд-лейбл/Record label: Universal Music
Номер в каталоге/Catalogue #: UICY-3857
Формат/Format: Free Lossless Audio Codec (*.flac)
Качество/Quality: Lossless
Тип рипа/RIP Type: image+.cue
Продолжительность/Length: 00:43:00
Источник/Source: Собственный рип
Размер/Size: 355.1 MB

Сканы в комплекте

Треклист

01. Crazy Crazy Nights [0:03:47.68]
02. I'll Fight Hell to Hold You [0:04:09.25]
03. Bang Bang You [0:03:53.10]
04. No, No, No [0:04:17.52]
05. Hell or High Water [0:03:27.05]
06. My Way [0:03:59.20]
07. When Your Walls Come Down [0:03:24.00]
08. Reason to Live [0:04:00.20]
09. Good Girl Gone Bad [0:04:35.00]
10. Turn on the Night [0:03:18.35]
11. Thief in the Night [0:04:07.70]
[свернуть]

youtube.com

[свернуть]

Исполнители/Performers

Kiss
Paul Stanley - rhythm guitar, vocals, keyboards
Gene Simmons - bass guitar, vocals
Eric Carr - drums, percussion, backing vocals
Bruce Kulick - lead guitar, keyboards, backing vocals, bass guitar on "Hell or High Water"

Additional personnel
Phil Ashley - keyboards
Tom Kelly - backing vocals
[свернуть]

EAC лог

Exact Audio Copy V1.3 from 2. September 2016

EAC extraction logfile from 15. May 2017, 22:40

Kiss / Crazy Nights

Used drive : PLEXTOR DVDR PX-716A Adapter: 1 ID: 0

Read mode : Secure
Utilize accurate stream : Yes
Defeat audio cache : Yes
Make use of C2 pointers : No

Read offset correction : 30
Overread into Lead-In and Lead-Out : No
Fill up missing offset samples with silence : Yes
Delete leading and trailing silent blocks : No
Null samples used in CRC calculations : Yes
Used interface : Native Win32 interface for Win NT & 2000

Used output format : User Defined Encoder
Selected bitrate : 1024 kBit/s
Quality : High
Add ID3 tag : No
Command line compressor : C:\Program Files (x86)\Exact Audio Copy\FLAC\FLAC.EXE
Additional command line options : -6 -V -T "ARTIST=%artist%" -T "TITLE=%title%" -T "ALBUM=%albumtitle%" -T "DATE=%year%" -T "TRACKNUMBER=%tracknr%" -T "GENRE=%genre%" -T "COMMENT=%comment%" -T "BAND=%albuminterpret%" -T "ALBUMARTIST=%albuminterpret%" -T "COMPOSER=%composer%" %haslyrics%--tag-from-file=LYRICS="%lyricsfile%"%haslyrics% -T "DISCNUMBER=%cdnumber%" -T "TOTALDISCS=%totalcds%" -T "TOTALTRACKS=%numtracks%" %hascover%--picture="%coverfile%"%hascover% %source% -o %dest%


TOC of the extracted CD

Track | Start | Length | Start sector | End sector
---------------------------------------------------------
1 | 0:00.00 | 3:47.68 | 0 | 17092
2 | 3:47.68 | 4:09.25 | 17093 | 35792
3 | 7:57.18 | 3:53.10 | 35793 | 53277
4 | 11:50.28 | 4:17.52 | 53278 | 72604
5 | 16:08.05 | 3:27.05 | 72605 | 88134
6 | 19:35.10 | 3:59.20 | 88135 | 106079
7 | 23:34.30 | 3:24.00 | 106080 | 121379
8 | 26:58.30 | 4:00.20 | 121380 | 139399
9 | 30:58.50 | 4:35.00 | 139400 | 160024
10 | 35:33.50 | 3:18.35 | 160025 | 174909
11 | 38:52.10 | 4:07.70 | 174910 | 193504


Range status and errors

Selected range

Filename C:\mm\KISS\1987(2005) - Crazy Nights [UICY-3857]\Kiss - Crazy Nights.wav

Peak level 99.9 %
Extraction speed 11.7 X
Range quality 100.0 %
Test CRC 8E5B0321
Copy CRC 8E5B0321
Copy OK

No errors occurred


AccurateRip summary

Track 1 accurately ripped (confidence 13) [32FA7EC1] (AR v2)
Track 2 accurately ripped (confidence 12) [AD9D96E3] (AR v2)
Track 3 accurately ripped (confidence 12) [F97B9A4D] (AR v2)
Track 4 accurately ripped (confidence 12) [3C3A8209] (AR v2)
Track 5 accurately ripped (confidence 12) [41338C67] (AR v2)
Track 6 accurately ripped (confidence 12) [954AB9EF] (AR v2)
Track 7 accurately ripped (confidence 12) [383D81C9] (AR v2)
Track 8 accurately ripped (confidence 13) [CBB881D7] (AR v2)
Track 9 accurately ripped (confidence 12) [4BACB62B] (AR v2)
Track 10 accurately ripped (confidence 12) [9CB950AC] (AR v2)
Track 11 accurately ripped (confidence 12) [E19CBD3A] (AR v2)

All tracks accurately ripped

End of status report

---- CUETools DB Plugin V2.1.6

[CTDB TOCID: QIhcSoMpGSaSkOH.2v6R_YbcLf8-] found
Submit result: QIhcSoMpGSaSkOH.2v6R_YbcLf8- has been confirmed
Track | CTDB Status
1 | (21/21) Accurately ripped
2 | (21/21) Accurately ripped
3 | (21/21) Accurately ripped
4 | (21/21) Accurately ripped
5 | (21/21) Accurately ripped
6 | (21/21) Accurately ripped
7 | (21/21) Accurately ripped
8 | (21/21) Accurately ripped
9 | (21/21) Accurately ripped
10 | (21/21) Accurately ripped
11 | (21/21) Accurately ripped
[свернуть]

Файл CUE

REM GENRE Rock
REM DATE 1987
REM DISCID 880A140B
REM COMMENT "ExactAudioCopy v1.3"
PERFORMER "Kiss"
TITLE "Crazy Nights"
REM COMPOSER ""
FILE "Kiss - Crazy Nights.flac" WAVE
TRACK 01 AUDIO
TITLE "Crazy Crazy Nights"
PERFORMER "Kiss"
REM COMPOSER ""
INDEX 01 00:00:00
TRACK 02 AUDIO
TITLE "I'll Fight Hell to Hold You"
PERFORMER "Kiss"
REM COMPOSER ""
INDEX 01 03:47:68
TRACK 03 AUDIO
TITLE "Bang Bang You"
PERFORMER "Kiss"
REM COMPOSER ""
INDEX 01 07:57:18
TRACK 04 AUDIO
TITLE "No, No, No"
PERFORMER "Kiss"
REM COMPOSER ""
INDEX 01 11:50:28
TRACK 05 AUDIO
TITLE "Hell or High Water"
PERFORMER "Kiss"
REM COMPOSER ""
INDEX 01 16:08:05
TRACK 06 AUDIO
TITLE "My Way"
PERFORMER "Kiss"
REM COMPOSER ""
INDEX 01 19:35:10
TRACK 07 AUDIO
TITLE "When Your Walls Come Down"
PERFORMER "Kiss"
REM COMPOSER ""
INDEX 00 23:34:06
INDEX 01 23:34:30
TRACK 08 AUDIO
TITLE "Reason to Live"
PERFORMER "Kiss"
REM COMPOSER ""
INDEX 01 26:58:30
TRACK 09 AUDIO
TITLE "Good Girl Gone Bad"
PERFORMER "Kiss"
REM COMPOSER ""
INDEX 01 30:58:50
TRACK 10 AUDIO
TITLE "Turn on the Night"
PERFORMER "Kiss"
REM COMPOSER ""
INDEX 01 35:33:50
TRACK 11 AUDIO
TITLE "Thief in the Night"
PERFORMER "Kiss"
REM COMPOSER ""
INDEX 01 38:52:10
[свернуть]

Лог проверки качества

AUDIOCHECKER v2.0 beta (build 457) - by Dester - [Ссылки могут видеть только зарегистрированные пользователи. ]
~~~~~~~~~~~~~~~~~~~~~~~~~~~~~~~~~~
-=== НЕ РЕДАКТИРУЙТЕ ЭТОТ ФАЙЛ! ===-

Путь: ...\1987(2005) - Crazy Nights [UICY-3857]

1 -=- Kiss - Crazy Nights.flac -=- MPEG (95%)

249485940
[свернуть]

Спектр частот

[свернуть]

Скачать Kiss - Crazy Nights

[Ссылки могут видеть только зарегистрированные пользователи. ]

password: sergych
[свернуть]

Контрольная сумма (хеш-сумма) архива

MD5: cac537f0c8428f28398ec22a80916cd2
[свернуть]
My opinion of release: 9/10
__________________
TAIFUN.Wings of Soul

Вверх
Пользователь сказал cпасибо:
swint68 (17.05.2017)
Похожие темы
Тема Автор Раздел Ответов Последнее сообщение
Live Kiss – Kiss Rocks Vegas PUPOKIN Hard Rock 0 29.08.2016 13:36
Сборник Shirley Bassey - Kiss Me Honey Honey Kiss Me sergych Зарубежная Поп-Музыка 0 03.01.2016 15:13
VA City Nights Vol. 2 PUPOKIN House 0 14.01.2011 10:23
Релиз Best Coast - Crazy For You PUPOKIN Indie Rock 0 17.07.2010 10:44
Virtual Nights Vol. 1 PUPOKIN House 0 25.12.2008 10:03


Метки
1987 , 2005 , crazy nights , glam metal , hard rock , kiss

Опции темы

Ваши права в разделе
Вы не можете создавать новые темы
Вы не можете отвечать в темах
Вы не можете прикреплять вложения
Вы не можете редактировать свои сообщения

Быстрый переход



Текущее время: 12:49. Часовой пояс GMT +3.
Powered by vBulletin® Version 3.8.7
Copyright ©2000 - 2017, vBulletin Solutions, Inc. Перевод: zCarot
© 2008 - 2017 Taifun With Song
Яндекс.Метрика