TAIFUN With Song
Вернуться   TAIFUN With Song > Music (обменник) > Другие направления музыки > Jazz и Blues
Расширенный поиск
Jazz и Blues Гибкая ритмика, импровизационное начало, гармонии и мелодии - все это Jazz. Blues - жизнеутверждающая музыка, рожденная из душевной боли

А знаете ли Вы, что...
Почему песня «Nothing Else Matters» начинается перебором на открытых струнах?
«В начале песни «Nothing Else Matters» группы Metallica слышен перебор на открытых первой, второй, третьей и шестой струнах. Такое композиционное решение появилось благодаря тому, что её автор Джеймс Хэтфилд, когда начинал сочинять песню, одной рукой держал телефонную трубку и разговаривал со своей девушкой.»
 
Опции темы

  #1
Старый 15.05.2017, 18:13
sergych
Координатор
Досье
 
Аватар для sergych
Релиз Johnny Frigo with Bucky and John Pizzarelli - Live From Studio A in New York City


1989 - Johnny Frigo with Bucky and John Pizzarelli - Live From Studio A in New York City




Исполнитель/Artist: Johnny Frigo with Bucky and John Pizzarelli
Альбом/Album: Live From Studio A in New York City
Год/Year: 1989
Жанр/Genre: Jazz, Swing
Страна/Country: Австрия
Рекорд-лейбл/Record label: Chesky Records
Номер в каталоге/Catalogue #: JD1
Формат/Format: Free Lossless Audio Codec (*.flac)
Качество/Quality: Lossless
Тип рипа/RIP Type: image+.cue
Продолжительность/Length: 00:55:39
Источник/Source: Собственный рип
Размер/Size: 308.5 MB

Сканы в комплекте

Треклист

01. Pick Yourself Up and Start All Over Again [0:03:06.22]
02. Do Nothing Till You Hear From Me [0:06:48.23]
03. Detour Ahead [0:04:21.42]
04. Just Friends [0:03:23.03]
05. Estrellita [0:02:34.52]
06. Stompin' At The Savoy [0:04:05.53]
07. Early Autumn [0:05:03.40]
08. You Stepped Out Of A Dream [0:03:20.60]
09. In A Sentimental Mood [0:05:16.72]
10. The Song Is You [0:04:07.43]
11. I'm Throught With Love [0:04:06.37]
12. Summer Me, Winter Me [0:02:36.33]
13. Tangerine [0:03:19.40]
14. I'll Never Be The Same [0:03:28.25]
[свернуть]

youtube.com

[свернуть]

Исполнители/Performers

Johnny Frigo – violin
Bucky Pizzarelli – guitar
John Pizzarelli – guitar
Butch Miles – drums
Ron Carter - bass (1-4,7,8)
Michael Moore – bass (9-13)
[свернуть]

EAC лог

Exact Audio Copy V1.3 from 2. September 2016

EAC extraction logfile from 14. May 2017, 21:36

Johnny Frigo with Bucky and John Pizzarelli / Live From Studio A in New York City

Used drive : PLEXTOR DVDR PX-716A Adapter: 1 ID: 0

Read mode : Secure
Utilize accurate stream : Yes
Defeat audio cache : Yes
Make use of C2 pointers : No

Read offset correction : 30
Overread into Lead-In and Lead-Out : No
Fill up missing offset samples with silence : Yes
Delete leading and trailing silent blocks : No
Null samples used in CRC calculations : Yes
Used interface : Native Win32 interface for Win NT & 2000

Used output format : User Defined Encoder
Selected bitrate : 1024 kBit/s
Quality : High
Add ID3 tag : No
Command line compressor : C:\Program Files (x86)\Exact Audio Copy\FLAC\FLAC.EXE
Additional command line options : -6 -V -T "ARTIST=%artist%" -T "TITLE=%title%" -T "ALBUM=%albumtitle%" -T "DATE=%year%" -T "TRACKNUMBER=%tracknr%" -T "GENRE=%genre%" -T "COMMENT=%comment%" -T "BAND=%albuminterpret%" -T "ALBUMARTIST=%albuminterpret%" -T "COMPOSER=%composer%" %haslyrics%--tag-from-file=LYRICS="%lyricsfile%"%haslyrics% -T "DISCNUMBER=%cdnumber%" -T "TOTALDISCS=%totalcds%" -T "TOTALTRACKS=%numtracks%" %hascover%--picture="%coverfile%"%hascover% %source% -o %dest%


TOC of the extracted CD

Track | Start | Length | Start sector | End sector
---------------------------------------------------------
1 | 0:00.00 | 3:06.22 | 0 | 13971
2 | 3:06.22 | 6:48.23 | 13972 | 44594
3 | 9:54.45 | 4:21.42 | 44595 | 64211
4 | 14:16.12 | 3:23.03 | 64212 | 79439
5 | 17:39.15 | 2:34.52 | 79440 | 91041
6 | 20:13.67 | 4:05.53 | 91042 | 109469
7 | 24:19.45 | 5:03.40 | 109470 | 132234
8 | 29:23.10 | 3:20.60 | 132235 | 147294
9 | 32:43.70 | 5:16.72 | 147295 | 171066
10 | 38:00.67 | 4:07.43 | 171067 | 189634
11 | 42:08.35 | 4:06.37 | 189635 | 208121
12 | 46:14.72 | 2:36.33 | 208122 | 219854
13 | 48:51.30 | 3:19.40 | 219855 | 234819
14 | 52:10.70 | 3:28.25 | 234820 | 250444


Range status and errors

Selected range

Filename C:\mm\1989 - Johnny Frigo with Bucky & John Pizzarelli - Live From Studio A In New York City [JD1]\Johnny Frigo with Bucky and John Pizzarelli - Live From Studio A in New York City.wav

Peak level 94.3 %
Extraction speed 12.6 X
Range quality 99.9 %
Test CRC 4BDCFE45
Copy CRC 4BDCFE45
Copy OK

No errors occurred


AccurateRip summary

Track 1 accurately ripped (confidence 8) [3BCF6A6A] (AR v2)
Track 2 accurately ripped (confidence 8) [5ED3973E] (AR v2)
Track 3 accurately ripped (confidence 8) [C76398EC] (AR v2)
Track 4 accurately ripped (confidence 8) [928308BD] (AR v2)
Track 5 accurately ripped (confidence 8) [66252D7D] (AR v2)
Track 6 accurately ripped (confidence 8) [1A1B948F] (AR v2)
Track 7 accurately ripped (confidence 8) [7DB2E8F1] (AR v2)
Track 8 accurately ripped (confidence 8) [623FA7E5] (AR v2)
Track 9 accurately ripped (confidence 8) [59C143FC] (AR v2)
Track 10 accurately ripped (confidence 8) [B63C32BD] (AR v2)
Track 11 accurately ripped (confidence 8) [EFD1C2B5] (AR v2)
Track 12 accurately ripped (confidence 8) [0053C111] (AR v2)
Track 13 accurately ripped (confidence 8) [CB2B7F57] (AR v2)
Track 14 accurately ripped (confidence 8) [F33A7FED] (AR v2)

All tracks accurately ripped

End of status report

---- CUETools DB Plugin V2.1.6

[CTDB TOCID: 5_tBsXMM7Lyki3m4RI7mPbR8qGU-] found
Submit result: 5_tBsXMM7Lyki3m4RI7mPbR8qGU- has been confirmed
Track | CTDB Status
1 | (9/9) Accurately ripped
2 | (9/9) Accurately ripped
3 | (9/9) Accurately ripped
4 | (9/9) Accurately ripped
5 | (9/9) Accurately ripped
6 | (9/9) Accurately ripped
7 | (9/9) Accurately ripped
8 | (9/9) Accurately ripped
9 | (9/9) Accurately ripped
10 | (9/9) Accurately ripped
11 | (9/9) Accurately ripped
12 | (9/9) Accurately ripped
13 | (9/9) Accurately ripped
14 | (9/9) Accurately ripped
[свернуть]

Файл CUE

REM GENRE Jazz
REM DATE 1989
REM DISCID C90D0B0E
REM COMMENT "ExactAudioCopy v1.3"
PERFORMER "Johnny Frigo with Bucky and John Pizzarelli"
TITLE "Live From Studio A in New York City"
REM COMPOSER ""
FILE "Johnny Frigo with Bucky and John Pizzarelli - Live From Studio A in New York City.flac" WAVE
TRACK 01 AUDIO
TITLE "Pick Yourself Up and Start All Over Again"
PERFORMER "Johnny Frigo with Bucky and John Pizzarelli"
REM COMPOSER ""
INDEX 01 00:00:00
TRACK 02 AUDIO
TITLE "Do Nothing Till You Hear From Me"
PERFORMER "Johnny Frigo with Bucky and John Pizzarelli"
REM COMPOSER ""
INDEX 00 03:00:47
INDEX 01 03:06:22
TRACK 03 AUDIO
TITLE "Detour Ahead"
PERFORMER "Johnny Frigo with Bucky and John Pizzarelli"
REM COMPOSER ""
INDEX 00 09:49:27
INDEX 01 09:54:45
TRACK 04 AUDIO
TITLE "Just Friends"
PERFORMER "Johnny Frigo with Bucky and John Pizzarelli"
REM COMPOSER ""
INDEX 00 14:11:20
INDEX 01 14:16:12
TRACK 05 AUDIO
TITLE "Estrellita"
PERFORMER "Johnny Frigo with Bucky and John Pizzarelli"
REM COMPOSER ""
INDEX 00 17:34:02
INDEX 01 17:39:15
TRACK 06 AUDIO
TITLE "Stompin' At The Savoy"
PERFORMER "Johnny Frigo with Bucky and John Pizzarelli"
REM COMPOSER ""
INDEX 00 20:08:25
INDEX 01 20:13:67
TRACK 07 AUDIO
TITLE "Early Autumn"
PERFORMER "Johnny Frigo with Bucky and John Pizzarelli"
REM COMPOSER ""
INDEX 00 24:14:70
INDEX 01 24:19:45
TRACK 08 AUDIO
TITLE "You Stepped Out Of A Dream"
PERFORMER "Johnny Frigo with Bucky and John Pizzarelli"
REM COMPOSER ""
INDEX 00 29:18:05
INDEX 01 29:23:10
TRACK 09 AUDIO
TITLE "In A Sentimental Mood"
PERFORMER "Johnny Frigo with Bucky and John Pizzarelli"
REM COMPOSER ""
INDEX 00 32:38:25
INDEX 01 32:43:70
TRACK 10 AUDIO
TITLE "The Song Is You"
PERFORMER "Johnny Frigo with Bucky and John Pizzarelli"
REM COMPOSER ""
INDEX 00 37:55:42
INDEX 01 38:00:67
TRACK 11 AUDIO
TITLE "I'm Throught With Love"
PERFORMER "Johnny Frigo with Bucky and John Pizzarelli"
REM COMPOSER ""
INDEX 00 42:03:27
INDEX 01 42:08:35
TRACK 12 AUDIO
TITLE "Summer Me, Winter Me"
PERFORMER "Johnny Frigo with Bucky and John Pizzarelli"
REM COMPOSER ""
INDEX 00 46:09:62
INDEX 01 46:14:72
TRACK 13 AUDIO
TITLE "Tangerine"
PERFORMER "Johnny Frigo with Bucky and John Pizzarelli"
REM COMPOSER ""
INDEX 00 48:46:50
INDEX 01 48:51:30
TRACK 14 AUDIO
TITLE "I'll Never Be The Same"
PERFORMER "Johnny Frigo with Bucky and John Pizzarelli"
REM COMPOSER ""
INDEX 00 52:06:32
INDEX 01 52:10:70
[свернуть]

Лог проверки качества

AUDIOCHECKER v2.0 beta (build 457) - by Dester - [Ссылки могут видеть только зарегистрированные пользователи. ]
~~~~~~~~~~~~~~~~~~~~~~~~~~~~~~~~~~
-=== НЕ РЕДАКТИРУЙТЕ ЭТОТ ФАЙЛ! ===-

Путь: ...\1989 - Johnny Frigo with Bucky & John Pizzarelli - Live From Studio A In New York City [JD1]

1 -=- Johnny Frigo with Bucky and John Pizzarelli - Live From Studio A in New York City.flac -=- CDDA (100%)

161534244
[свернуть]

Спектр частот

[свернуть]

Скачать Johnny Frigo with Bucky and John Pizzarelli - Live From Studio A in New York City

[Ссылки могут видеть только зарегистрированные пользователи. ]

password: sergych
[свернуть]

Контрольная сумма (хеш-сумма) архива

MD5: 7241d2a1ea1735ef38e6fca789d84f14
[свернуть]
My opinion of release: 10/10
__________________
TAIFUN.Wings of Soul

Вверх
3 пользователя(ей) сказали cпасибо:
Показать список поблагодаривших
Похожие темы
Тема Автор Раздел Ответов Последнее сообщение
Альбом Bucky and John Pizzarelli - Contrasts sergych Jazz и Blues 0 31.03.2017 20:53
Live John Pizzarelli Trio - Live At Birdland sergych Jazz и Blues 0 08.02.2017 19:02
Альбом John Pizzarelli - One Night With You. The John Pizzarelli Collection sergych Jazz и Blues 0 20.12.2014 08:45
Альбом Bucky And John Pizzarelli - At The Vineyard Theatre sergych Jazz и Blues 0 17.10.2013 19:45
Альбом Bucky and John Pizzarelli - Generations sergych Jazz и Blues 0 14.06.2010 09:08


Метки
1989 , jazz , johnny frigo with bucky and john pizzarelli , live from studio a in new york city , swing

Опции темы

Ваши права в разделе
Вы не можете создавать новые темы
Вы не можете отвечать в темах
Вы не можете прикреплять вложения
Вы не можете редактировать свои сообщения

Быстрый переход



Текущее время: 08:17. Часовой пояс GMT +3.
Powered by vBulletin® Version 3.8.7
Copyright ©2000 - 2017, vBulletin Solutions, Inc. Перевод: zCarot
© 2008 - 2017 Taifun With Song
Яндекс.Метрика