TAIFUN With Song
Jazz и Blues Гибкая ритмика, импровизационное начало, гармонии и мелодии - все это Jazz. Blues - жизнеутверждающая музыка, рожденная из душевной боли

А знаете ли Вы, что...
Почему обложку музыкального сборника
«В 2005 году Sony BMG выпустила музыкальный сборник ‘Electric 80s’. В оформлении обложки диска был использован большой штрих-код. Некоторые супермаркеты потерпели убытки после того, как их продавцы считывали сканерами именно этот штрих-код вместо обычного, располагающегося на обратной стороне диска. Сканеры распознавали по коду другой товар, который стоил дешевле. Во второй партии дисков обложка была изменена.»
 
Опции темы

  #1
Старый 14.05.2017, 12:32
sergych
Координатор
Досье
 
Аватар для sergych
Релиз John Pizzarelli - Midnight McCartney


2015 - John Pizzarelli - Midnight McCartney




Исполнитель/Artist: John Pizzarelli
Альбом/Album: Midnight McCartney
Год/Year: 2015
Жанр/Genre: Jazz, Smooth jazz, Funky
Страна/Country: Соединённые Штаты
Рекорд-лейбл/Record label: Concord Records
Номер в каталоге/Catalogue #: CRE-37634-02
Формат/Format: Free Lossless Audio Codec (*.flac)
Качество/Quality: Lossless
Тип рипа/RIP Type: image+.cue
Продолжительность/Length: 00:49:51
Источник/Source: Собственный рип
Размер/Size: 372.5 MB

Сканы в комплекте

Треклист

01. Silly Love Songs [0:03:51.11]
02. My Love [0:04:25.72]
03. Heart Of The Country [0:03:11.54]
04. John Pizzarelli feat. Michael McDonald / Coming Up [0:03:56.35]
05. No More Lonely Nights [0:05:07.27]
06. Warm And Beautiful [0:03:33.19]
07. Hi, Hi, Hi [0:03:52.11]
08. Junk [0:03:37.73]
09. My Valentine [0:03:39.56]
10. Let ‘Em In [0:02:53.36]
11. Some People Never Know [0:03:23.28]
12. Maybe I'm Amazed [0:04:00.48]
13. Wonderful Christmastime [0:04:17.65]
[свернуть]

youtube.com

[свернуть]

EAC лог

Exact Audio Copy V1.3 from 2. September 2016

EAC extraction logfile from 13. May 2017, 9:51

John Pizzarelli / Midnight McCartney

Used drive : PLEXTOR DVDR PX-716A Adapter: 1 ID: 0

Read mode : Secure
Utilize accurate stream : Yes
Defeat audio cache : Yes
Make use of C2 pointers : No

Read offset correction : 30
Overread into Lead-In and Lead-Out : No
Fill up missing offset samples with silence : Yes
Delete leading and trailing silent blocks : No
Null samples used in CRC calculations : Yes
Used interface : Native Win32 interface for Win NT & 2000

Used output format : User Defined Encoder
Selected bitrate : 1024 kBit/s
Quality : High
Add ID3 tag : No
Command line compressor : C:\Program Files (x86)\Exact Audio Copy\FLAC\FLAC.EXE
Additional command line options : -6 -V -T "ARTIST=%artist%" -T "TITLE=%title%" -T "ALBUM=%albumtitle%" -T "DATE=%year%" -T "TRACKNUMBER=%tracknr%" -T "GENRE=%genre%" -T "COMMENT=%comment%" -T "BAND=%albuminterpret%" -T "ALBUMARTIST=%albuminterpret%" -T "COMPOSER=%composer%" %haslyrics%--tag-from-file=LYRICS="%lyricsfile%"%haslyrics% -T "DISCNUMBER=%cdnumber%" -T "TOTALDISCS=%totalcds%" -T "TOTALTRACKS=%numtracks%" %hascover%--picture="%coverfile%"%hascover% %source% -o %dest%


TOC of the extracted CD

Track | Start | Length | Start sector | End sector
---------------------------------------------------------
1 | 0:00.00 | 3:51.11 | 0 | 17335
2 | 3:51.11 | 4:25.72 | 17336 | 37282
3 | 8:17.08 | 3:11.54 | 37283 | 51661
4 | 11:28.62 | 3:56.35 | 51662 | 69396
5 | 15:25.22 | 5:07.27 | 69397 | 92448
6 | 20:32.49 | 3:33.19 | 92449 | 108442
7 | 24:05.68 | 3:52.11 | 108443 | 125853
8 | 27:58.04 | 3:37.73 | 125854 | 142201
9 | 31:36.02 | 3:39.56 | 142202 | 158682
10 | 35:15.58 | 2:53.36 | 158683 | 171693
11 | 38:09.19 | 3:23.28 | 171694 | 186946
12 | 41:32.47 | 4:00.48 | 186947 | 204994
13 | 45:33.20 | 4:17.65 | 204995 | 224334


Range status and errors

Selected range

Filename C:\mm\John Pizzarelli\2015 - Midnight McCartney [CRE-37634-02]\John Pizzarelli - Midnight McCartney.wav

Peak level 100.0 %
Extraction speed 12.7 X
Range quality 100.0 %
Test CRC 011787B5
Copy CRC 011787B5
Copy OK

No errors occurred


AccurateRip summary

Track 1 accurately ripped (confidence 18) [9BC02B74] (AR v2)
Track 2 accurately ripped (confidence 18) [5F1BE217] (AR v2)
Track 3 accurately ripped (confidence 18) [DF077DE1] (AR v2)
Track 4 accurately ripped (confidence 18) [BC3CE1D5] (AR v2)
Track 5 accurately ripped (confidence 18) [D4B448AF] (AR v2)
Track 6 accurately ripped (confidence 18) [DF510C6F] (AR v2)
Track 7 accurately ripped (confidence 18) [854C23E9] (AR v2)
Track 8 accurately ripped (confidence 18) [D5A011A4] (AR v2)
Track 9 accurately ripped (confidence 18) [5C566D91] (AR v2)
Track 10 accurately ripped (confidence 18) [8DE69833] (AR v2)
Track 11 accurately ripped (confidence 18) [A3F3AF17] (AR v2)
Track 12 accurately ripped (confidence 18) [B96FF723] (AR v2)
Track 13 accurately ripped (confidence 18) [062E1DB6] (AR v2)

All tracks accurately ripped

End of status report

---- CUETools DB Plugin V2.1.6

[CTDB TOCID: J4H.XFTsZLHcWctdtNbSzU.Riv4-] found
Submit result: J4H.XFTsZLHcWctdtNbSzU.Riv4- has been confirmed
Track | CTDB Status
1 | (35/35) Accurately ripped
2 | (35/35) Accurately ripped
3 | (35/35) Accurately ripped
4 | (35/35) Accurately ripped
5 | (35/35) Accurately ripped
6 | (35/35) Accurately ripped
7 | (35/35) Accurately ripped
8 | (35/35) Accurately ripped
9 | (35/35) Accurately ripped
10 | (35/35) Accurately ripped
11 | (35/35) Accurately ripped
12 | (35/35) Accurately ripped
13 | (35/35) Accurately ripped
[свернуть]

Файл CUE

REM GENRE Jazz
REM DATE 2015
REM DISCID C10BAF0D
REM COMMENT "ExactAudioCopy v1.3"
PERFORMER "John Pizzarelli"
TITLE "Midnight McCartney"
REM COMPOSER ""
FILE "John Pizzarelli - Midnight McCartney.flac" WAVE
TRACK 01 AUDIO
TITLE "Silly Love Songs"
PERFORMER "John Pizzarelli"
REM COMPOSER ""
INDEX 01 00:00:00
TRACK 02 AUDIO
TITLE "My Love"
PERFORMER "John Pizzarelli"
REM COMPOSER ""
INDEX 01 03:51:11
TRACK 03 AUDIO
TITLE "Heart Of The Country"
PERFORMER "John Pizzarelli"
REM COMPOSER ""
INDEX 01 08:17:08
TRACK 04 AUDIO
TITLE "Coming Up"
PERFORMER "John Pizzarelli feat. Michael McDonald"
REM COMPOSER ""
INDEX 01 11:28:62
TRACK 05 AUDIO
TITLE "No More Lonely Nights"
PERFORMER "John Pizzarelli"
REM COMPOSER ""
INDEX 01 15:25:22
TRACK 06 AUDIO
TITLE "Warm And Beautiful"
PERFORMER "John Pizzarelli"
REM COMPOSER ""
INDEX 01 20:32:49
TRACK 07 AUDIO
TITLE "Hi, Hi, Hi"
PERFORMER "John Pizzarelli"
REM COMPOSER ""
INDEX 01 24:05:68
TRACK 08 AUDIO
TITLE "Junk"
PERFORMER "John Pizzarelli"
REM COMPOSER ""
INDEX 01 27:58:04
TRACK 09 AUDIO
TITLE "My Valentine"
PERFORMER "John Pizzarelli"
REM COMPOSER ""
INDEX 01 31:36:02
TRACK 10 AUDIO
TITLE "Let ‘Em In"
PERFORMER "John Pizzarelli"
REM COMPOSER ""
INDEX 01 35:15:58
TRACK 11 AUDIO
TITLE "Some People Never Know"
PERFORMER "John Pizzarelli"
REM COMPOSER ""
INDEX 01 38:09:19
TRACK 12 AUDIO
TITLE "Maybe I'm Amazed"
PERFORMER "John Pizzarelli"
REM COMPOSER ""
INDEX 01 41:32:47
TRACK 13 AUDIO
TITLE "Wonderful Christmastime"
PERFORMER "John Pizzarelli"
REM COMPOSER ""
INDEX 01 45:33:20
[свернуть]

Лог проверки качества

AUDIOCHECKER v2.0 beta (build 457) - by Dester - [Ссылки могут видеть только зарегистрированные пользователи. ]
~~~~~~~~~~~~~~~~~~~~~~~~~~~~~~~~~~
-=== НЕ РЕДАКТИРУЙТЕ ЭТОТ ФАЙЛ! ===-

Путь: ...\2015 - Midnight McCartney [CRE-37634-02]

1 -=- John Pizzarelli - Midnight McCartney.flac -=- CDDA (99%)

211688724
[свернуть]

Спектр частот

[свернуть]

Скачать John Pizzarelli - Midnight McCartney

[Ссылки могут видеть только зарегистрированные пользователи. ]

password: sergych
[свернуть]

Контрольная сумма (хеш-сумма) архива

MD5: 9568d413e500f46c6d7dcae8fc1f63c3
[свернуть]
My opinion of release: 10/10
__________________
TAIFUN.Wings of Soul

Вверх
Пользователь сказал cпасибо:
swint68 (14.05.2017)
Похожие темы
Тема Автор Раздел Ответов Последнее сообщение
Альбом John Pizzarelli - Knowing You sergych Jazz и Blues 0 04.05.2015 23:46
Альбом John Pizzarelli - New Standards sergych Jazz и Blues 0 17.04.2015 21:05
Альбом John Pizzarelli - One Night With You. The John Pizzarelli Collection sergych Jazz и Blues 0 20.12.2014 08:45
Альбом John Pizzarelli - All Of Me sergych Jazz и Blues 0 27.03.2014 18:40
Сборник John Pizzarelli - The Best of John Pizzarelli. I Like Jersey Best sergych Jazz и Blues 0 16.10.2013 21:40


Метки
2015 , funky , jazz , john pizzarelli , midnight mccartney , smooth jazz

Опции темы

Ваши права в разделе
Вы не можете создавать новые темы
Вы не можете отвечать в темах
Вы не можете прикреплять вложения
Вы не можете редактировать свои сообщения

Быстрый переход



Текущее время: 05:53. Часовой пояс GMT +3.
Powered by vBulletin® Version 3.8.7
Copyright ©2000 - 2017, vBulletin Solutions, Inc. Перевод: zCarot
© 2008 - 2017 Taifun With Song
Яндекс.Метрика