TAIFUN With Song
Навигация
Вернуться   TAIFUN With Song > Music (обменник) > Rock > Pop Rock
Расширенный поиск
Pop Rock Поп-рок — жанр музыки, объединяющий элементы поп-музыки и рок-музыки. Песни характеризуются простой структурой, запоминающимися мелодиями, повторением музыкальных фраз (от попа), использованием в качестве основных инструментов электрогитар и ударных и агрессивным настроением (от рока).

А знаете ли Вы, что...
Как реагировала Монсеррат Кабалье, если кто-либо из зрителей записывал концерт на магнитофон?
«Монсеррат Кабалье иногда на своих концертах прибегала к следующей шутке. Если кто-либо из зрителей записывал концерт на магнитофон, и в какой-то момент ему надо было перевернуть кассету, Кабалье прекращала петь. Помолчав несколько секунд, она говорила: «Кивните мне, когда можно будет продолжать».»
 
Опции темы

  #1
Старый 12.05.2017, 23:20
sergych
Координатор
Досье
 
Аватар для sergych
Релиз Belinda Carlisle - Runaway Horses


1989 - Belinda Carlisle - Runaway Horses {Limited Collector's Edition}




Исполнитель/Artist: Belinda Carlisle
Альбом/Album: Runaway Horses {Limited Collector's Edition}
Год/Year: 1989
Жанр/Genre: pop rock, adult contemporary
Страна/Country: Австралия
Рекорд-лейбл/Record label: Virgin Records
Номер в каталоге/Catalogue #: CDV 2599T
Формат/Format: Free Lossless Audio Codec (*.flac)
Качество/Quality: Lossless
Тип рипа/RIP Type: image+.cue
Продолжительность/Length: 01:00:58
Источник/Source: Собственный рип
Размер/Size: 480.5 MB

Сканы в комплекте

Треклист

01. Leave A Light On [0:04:38.32]
02. Runaway Horses [0:04:43.48]
03. Vision Of You [0:04:41.22]
04. Summer Rain [0:05:32.33]
05. La Luna [0:04:46.70]
06. (We Want) The Same Thing [0:03:59.17]
07. Deep Deep Ocean [0:04:04.63]
08. Valentine [0:05:04.27]
09. Whatever It Takes [0:04:49.65]
10. Shades Of Michaelangelo [0:05:50.70]
11. Heaven Is A Place On Earth (Live) [0:04:56.08]
12. Circle In The Sand (Beach Party Mix) [0:07:50.27]
[свернуть]

youtube.com

[свернуть]

Исполнители/Performers

Belinda Carlisle — vocal
Paul Buckmaster — conductor, string arrangements
Luis Conte — percussion, bongos, shaker, Native American drums
George Harrison — twelve string guitar, slide guitar, 6-string bass
Jimmie Haskell — accordion
X.Y. Jones — electric guitar
Charles Judge — piano, keyboard
David Munday — bass, guitar, keyboard, drum programming
Rick Nowels — acoustic guitar, guitar, arranger, electric guitar, keyboard, producer, Spanish guitar
Sid Page — violin
John Pierce — bass
Kenny Aronoff, Rudy Richman — drums
Ben Shultz — acoustic guitar, guitar, twelve string guitar
Sandy Stewart — piano
Bekka Bramlett, Carmen Twillie, Donna De Lory, Ellen Shipley, Laura Harding, Maria Vidal, Monalisa Young, N'Dea Davenport — background vocals
Bryan Adams — background vocal on "Whatever It Takes"
Steve Lukather — guitar on "(We Want) The Same Thing"
[свернуть]

EAC лог

Exact Audio Copy V1.3 from 2. September 2016

EAC extraction logfile from 12. May 2017, 20:54

Belinda Carlisle / Runaway Horses {Limited Collector's Edition}

Used drive : PLEXTOR DVDR PX-716A Adapter: 1 ID: 0

Read mode : Secure
Utilize accurate stream : Yes
Defeat audio cache : Yes
Make use of C2 pointers : No

Read offset correction : 30
Overread into Lead-In and Lead-Out : No
Fill up missing offset samples with silence : Yes
Delete leading and trailing silent blocks : No
Null samples used in CRC calculations : Yes
Used interface : Native Win32 interface for Win NT & 2000

Used output format : User Defined Encoder
Selected bitrate : 1024 kBit/s
Quality : High
Add ID3 tag : No
Command line compressor : C:\Program Files (x86)\Exact Audio Copy\FLAC\FLAC.EXE
Additional command line options : -6 -V -T "ARTIST=%artist%" -T "TITLE=%title%" -T "ALBUM=%albumtitle%" -T "DATE=%year%" -T "TRACKNUMBER=%tracknr%" -T "GENRE=%genre%" -T "COMMENT=%comment%" -T "BAND=%albuminterpret%" -T "ALBUMARTIST=%albuminterpret%" -T "COMPOSER=%composer%" %haslyrics%--tag-from-file=LYRICS="%lyricsfile%"%haslyrics% -T "DISCNUMBER=%cdnumber%" -T "TOTALDISCS=%totalcds%" -T "TOTALTRACKS=%numtracks%" %hascover%--picture="%coverfile%"%hascover% %source% -o %dest%


TOC of the extracted CD

Track | Start | Length | Start sector | End sector
---------------------------------------------------------
1 | 0:00.00 | 4:38.32 | 0 | 20881
2 | 4:38.32 | 4:43.48 | 20882 | 42154
3 | 9:22.05 | 4:41.22 | 42155 | 63251
4 | 14:03.27 | 5:32.33 | 63252 | 88184
5 | 19:35.60 | 4:46.70 | 88185 | 109704
6 | 24:22.55 | 3:59.17 | 109705 | 127646
7 | 28:21.72 | 4:04.63 | 127647 | 146009
8 | 32:26.60 | 5:04.27 | 146010 | 168836
9 | 37:31.12 | 4:49.65 | 168837 | 190576
10 | 42:21.02 | 5:50.70 | 190577 | 216896
11 | 48:11.72 | 4:56.08 | 216897 | 239104
12 | 53:08.05 | 7:50.27 | 239105 | 274381


Range status and errors

Selected range

Filename C:\mm\Belinda Carlisle\1989 - Runaway Horses {Limited Collector's Edition} [CDV 2599T]\Belinda Carlisle - Runaway Horses {Limited Collector's Edition}.wav

Peak level 100.0 %
Extraction speed 13.2 X
Range quality 100.0 %
Test CRC 02753D7F
Copy CRC 02753D7F
Copy OK

No errors occurred


AccurateRip summary

Track 1 accurately ripped (confidence 4) [8DADA4A1] (AR v1)
Track 2 accurately ripped (confidence 4) [8B7B74CA] (AR v1)
Track 3 accurately ripped (confidence 4) [A59F9A01] (AR v1)
Track 4 accurately ripped (confidence 4) [68664335] (AR v1)
Track 5 accurately ripped (confidence 4) [75522315] (AR v1)
Track 6 accurately ripped (confidence 4) [F69A4096] (AR v1)
Track 7 accurately ripped (confidence 4) [CBC28122] (AR v1)
Track 8 accurately ripped (confidence 4) [6F082BCC] (AR v1)
Track 9 accurately ripped (confidence 4) [3CA9BCDA] (AR v1)
Track 10 accurately ripped (confidence 4) [0FD1753D] (AR v1)
Track 11 accurately ripped (confidence 4) [DA0A9A56] (AR v1)
Track 12 accurately ripped (confidence 4) [728544D1] (AR v1)

All tracks accurately ripped

End of status report

---- CUETools DB Plugin V2.1.6

[CTDB TOCID: 0__Hu30FWghE64UNTFBE55eq620-] found
Submit result: 0__Hu30FWghE64UNTFBE55eq620- has been confirmed
Track | CTDB Status
1 | (12/12) Accurately ripped
2 | (12/12) Accurately ripped
3 | (12/12) Accurately ripped
4 | (12/12) Accurately ripped
5 | (12/12) Accurately ripped
6 | (12/12) Accurately ripped
7 | (12/12) Accurately ripped
8 | (12/12) Accurately ripped
9 | (12/12) Accurately ripped
10 | (12/12) Accurately ripped
11 | (12/12) Accurately ripped
12 | (12/12) Accurately ripped
[свернуть]

Файл CUE

REM GENRE Rock
REM DATE 1989
REM DISCID A90E4A0C
REM COMMENT "ExactAudioCopy v1.3"
PERFORMER "Belinda Carlisle"
TITLE "Runaway Horses {Limited Collector's Edition}"
REM COMPOSER ""
FILE "Belinda Carlisle - Runaway Horses {Limited Collector's Edition}.flac" WAVE
TRACK 01 AUDIO
TITLE "Leave A Light On"
PERFORMER "Belinda Carlisle"
REM COMPOSER ""
INDEX 01 00:00:00
TRACK 02 AUDIO
TITLE "Runaway Horses"
PERFORMER "Belinda Carlisle"
REM COMPOSER ""
INDEX 00 04:35:30
INDEX 01 04:38:32
TRACK 03 AUDIO
TITLE "Vision Of You"
PERFORMER "Belinda Carlisle"
REM COMPOSER ""
INDEX 00 09:18:50
INDEX 01 09:22:05
TRACK 04 AUDIO
TITLE "Summer Rain"
PERFORMER "Belinda Carlisle"
REM COMPOSER ""
INDEX 00 14:00:45
INDEX 01 14:03:27
TRACK 05 AUDIO
TITLE "La Luna"
PERFORMER "Belinda Carlisle"
REM COMPOSER ""
INDEX 00 19:31:45
INDEX 01 19:35:60
TRACK 06 AUDIO
TITLE "(We Want) The Same Thing"
PERFORMER "Belinda Carlisle"
REM COMPOSER ""
INDEX 00 24:18:45
INDEX 01 24:22:55
TRACK 07 AUDIO
TITLE "Deep Deep Ocean"
PERFORMER "Belinda Carlisle"
REM COMPOSER ""
INDEX 00 28:19:67
INDEX 01 28:21:72
TRACK 08 AUDIO
TITLE "Valentine"
PERFORMER "Belinda Carlisle"
REM COMPOSER ""
INDEX 00 32:25:52
INDEX 01 32:26:60
TRACK 09 AUDIO
TITLE "Whatever It Takes"
PERFORMER "Belinda Carlisle"
REM COMPOSER ""
INDEX 00 37:29:72
INDEX 01 37:31:12
TRACK 10 AUDIO
TITLE "Shades Of Michaelangelo"
PERFORMER "Belinda Carlisle"
REM COMPOSER ""
INDEX 00 42:18:42
INDEX 01 42:21:02
TRACK 11 AUDIO
TITLE "Heaven Is A Place On Earth (Live)"
PERFORMER "Belinda Carlisle"
REM COMPOSER ""
INDEX 00 48:08:10
INDEX 01 48:11:72
TRACK 12 AUDIO
TITLE "Circle In The Sand (Beach Party Mix)"
PERFORMER "Belinda Carlisle"
REM COMPOSER ""
INDEX 00 53:04:12
INDEX 01 53:08:05
[свернуть]

Лог проверки качества

AUDIOCHECKER v2.0 beta (build 457) - by Dester -
~~~~~~~~~~~~~~~~~~~~~~~~~~~~~~~~~~
-=== НЕ РЕДАКТИРУЙТЕ ЭТОТ ФАЙЛ! ===-

Путь: ...\1989 - Runaway Horses {Limited Collector's Edition} [CDV 2599T]

1 -=- Belinda Carlisle - Runaway Horses {Limited Collector's Edition}.flac -=- CDDA (100%)

254077588
[свернуть]

Спектр частот

[свернуть]

Скачать Belinda Carlisle - Runaway Horses



password: sergych
[свернуть]

Контрольная сумма (хеш-сумма) архива

MD5: 3a128641827589dba51dd324e62ee4c1
[свернуть]
My opinion of release: 9/10
__________________
TAIFUN.Wings of Soul

Вверх
4 пользователя(ей) сказали cпасибо:
Показать список поблагодаривших
  #2
Старый 13.05.2017, 08:04
swint68
Меломан
Досье
 
Аватар для swint68
По умолчанию Re: Belinda Carlisle - Runaway Horses

Шикарный альбом, шикарной исполнительницы!

Вверх
2 пользователя(ей) сказали cпасибо:
Bumbum (23.05.2017), sergych (13.05.2017)
Похожие темы
Тема Автор Раздел Ответов Последнее сообщение
Релиз TEMPT – Runaway PUPOKIN Hard Rock 0 21.06.2016 15:54
Релиз Belinda - Catarsis PUPOKIN Зарубежная Поп-Музыка 0 13.08.2013 09:32
Релиз Cavalier - A Million Horses PUPOKIN Deep House 0 28.08.2011 09:40
Релиз Belinda Carlisle - Heaven on Earth PUPOKIN Pop Rock 0 05.06.2009 11:25
Rob Zombie - Educated Horses Alex1990 Hard Rock 0 06.05.2008 19:51


Метки
1989 , adult contemporary , belinda carlisle , pop rock , runaway horses {limited collector's edition}

Опции темы

Ваши права в разделе
Вы не можете создавать новые темы
Вы не можете отвечать в темах
Вы не можете прикреплять вложения
Вы не можете редактировать свои сообщения

Быстрый переход



Текущее время: 09:08. Часовой пояс GMT +3.
Powered by vBulletin® Version 3.8.10
Copyright ©2000 - 2017, vBulletin Solutions, Inc. Перевод: zCarot
© 2008 - 2017 Taifun With Song
Яндекс.Метрика