TAIFUN With Song
Вернуться   TAIFUN With Song > Music (обменник) > Другие направления музыки > R&B
Расширенный поиск
R&B Ссылки на музыку в этом стиле

А знаете ли Вы, что...
Почему американская полиция однажды решила, что одну из радиостанций захватили террористы Саддама Хусейна?
«В 1991 году радиостанция KLSK FM в американском городе Альбукерке решила сменить формат на классический рок, в связи с чем 24 часа подряд в эфире звучала песня Led Zeppelin «Stairway to Heaven». Дважды на станцию по просьбе взволнованных слушателей приезжала полиция: один человек заявил, что ди-джей, видимо, получил инфаркт, а другой — что радио захватили террористы, ведь фанатом Led Zeppelin является Саддам Хусейн.»
 
Опции темы

  #1
Старый 08.05.2017, 08:11
sergych
Координатор
Досье
 
Аватар для sergych
Релиз Mariah Carey - Me. I Am Mariah... The Elusive Chanteuse


2014 - Mariah Carey - Me. I Am Mariah... The Elusive Chanteuse




Исполнитель/Artist: Mariah Carey
Альбом/Album: Me. I Am Mariah... The Elusive Chanteuse
Год/Year: 2014
Жанр/Genre: R&B, hip hop, pop-soul, gospel,
Страна/Country: Австралия
Рекорд-лейбл/Record label: Def Jam Recordings
Номер в каталоге/Catalogue #: 3744049
Формат/Format: Free Lossless Audio Codec (*.flac)
Качество/Quality: Lossless
Тип рипа/RIP Type: image+.cue
Продолжительность/Length: 01:01:30
Источник/Source: Собственный рип
Размер/Size: 519.8 MB

Сканы в комплекте

Треклист

01. Cry [0:04:48.32]
02. Faded [0:03:39.55]
03. Dedicated (feat. NAS) [0:04:13.18]
04. # Beautiful (feat. Miguel) [0:03:19.71]
05. Thirsty [0:03:25.46]
06. Make It Look Good [0:03:23.03]
07. You're Mine (Eternal) [0:03:44.08]
08. You Don't Know What To Do featuring Wale [0:04:47.39]
09. Supernatural (with ''Dembabies'' A.K.A. Ms. Monroe & Mr. Moroccan Scott Cannon A.K.A. Roc n' Roe) [0:04:37.40]
10. Meteorite [0:03:50.53]
11. Camouflage [0:04:48.44]
12. Money ($ * / ...) (feat. Fabolous) [0:04:54.64]
13. One More Try [0:06:17.26]
14. Heavenly (No Ways Tired / Can't Give Up Now)
[свернуть]

youtube.com

[свернуть]

Исполнители/Performers

Mariah Carey – executive producer, liner notes, primary artist, producer, vocal arrangement, vocals, background vocals
Dembabies a.k.a. Ms. Monroe – featured artist
Fabolous – featured artist
Mr. Moroccan a.k.a. Moroccan Scott Cannon – featured artist
Nasir "Nas" Jones – featured artist
R. Kelly – featured artist
Steve Stoute – vocals
Ajanee Hamrick, Andre Washington, Angelina Mendez, Ayana George, Barnell Norman, Eric Turner, Erin McGlover, Ilani Patterson, Jackie Phillips, Katrina Spence, Latasha Jordan, Malik Spence, Melanie Lesley, Melanie Rochford, Melinda Michelle Holder-Dawkins, Melodie Nicholson, Nakiba Bonds, Oresa Napper-Williams, Stacey Laverne Berry, Tiffany Morriar, Troy Bright – choir/chorus
Sherry McGhee – choir/chorus, background vocals
James Fauntleroy, Julio Whitaker, Kaylana Tatum, Takeytha Johnson – background vocals
Mary Ann Tatum – vocal arrangement, vocal producer, background vocals
Miguel Pimentel – drum programming, featured artist, guitar, producer, vocals
Bryan-Michael Cox – producer, background vocals
Jermaine Dupri – management, mixing, producer, background vocals
Haze Banga – additional production, engineer, mixing, vocals
Ray Angry – keyboards
Q-Tip – keyboards, producer
Stevie Wonder – harmonica, soloist
Larry Gold – conductor, string arrangements
Giovanna Clayton, Julie Jung, Vanessa Freebairn-Smith – cello
Joel Derouin – concert master, violin
Bob Peterson, Caroline Buckman, Grace Oh, Ina Veli, Jenny Takamatsu, Josefina Vergara, Kathleen Sloan, Mario de León, Marisa Kuney, Serena McKinney, Songa Lee, Tamara Hatwan – violin
Kaila Potts, Lauren Chipman, Mike Whitson – viola
Happy Perez – guitar, producer
Chris Sholar – guitar
Louis Cato – bass
[свернуть]

EAC лог

Exact Audio Copy V1.3 from 2. September 2016

EAC extraction logfile from 30. April 2017, 22:17

Mariah Carey / Me. I Am Mariah... The Elusive Chanteuse

Used drive : PLEXTOR DVDR PX-716A Adapter: 1 ID: 0

Read mode : Secure
Utilize accurate stream : Yes
Defeat audio cache : Yes
Make use of C2 pointers : No

Read offset correction : 30
Overread into Lead-In and Lead-Out : No
Fill up missing offset samples with silence : Yes
Delete leading and trailing silent blocks : No
Null samples used in CRC calculations : Yes
Used interface : Native Win32 interface for Win NT & 2000

Used output format : User Defined Encoder
Selected bitrate : 1024 kBit/s
Quality : High
Add ID3 tag : No
Command line compressor : C:\Program Files (x86)\Exact Audio Copy\FLAC\FLAC.EXE
Additional command line options : -6 -V -T "ARTIST=%artist%" -T "TITLE=%title%" -T "ALBUM=%albumtitle%" -T "DATE=%year%" -T "TRACKNUMBER=%tracknr%" -T "GENRE=%genre%" -T "COMMENT=%comment%" -T "BAND=%albuminterpret%" -T "ALBUMARTIST=%albuminterpret%" -T "COMPOSER=%composer%" %haslyrics%--tag-from-file=LYRICS="%lyricsfile%"%haslyrics% -T "DISCNUMBER=%cdnumber%" -T "TOTALDISCS=%totalcds%" -T "TOTALTRACKS=%numtracks%" %hascover%--picture="%coverfile%"%hascover% %source% -o %dest%


TOC of the extracted CD

Track | Start | Length | Start sector | End sector
---------------------------------------------------------
1 | 0:00.00 | 4:48.32 | 0 | 21631
2 | 4:48.32 | 3:39.55 | 21632 | 38111
3 | 8:28.12 | 4:13.18 | 38112 | 57104
4 | 12:41.30 | 3:19.71 | 57105 | 72100
5 | 16:01.26 | 3:25.46 | 72101 | 87521
6 | 19:26.72 | 3:23.03 | 87522 | 102749
7 | 22:50.00 | 3:44.08 | 102750 | 119557
8 | 26:34.08 | 4:47.39 | 119558 | 141121
9 | 31:21.47 | 4:37.40 | 141122 | 161936
10 | 35:59.12 | 3:50.53 | 161937 | 179239
11 | 39:49.65 | 4:48.44 | 179240 | 200883
12 | 44:38.34 | 4:54.64 | 200884 | 222997
13 | 49:33.23 | 6:17.26 | 222998 | 251298
14 | 55:50.49 | 5:38.70 | 251299 | 276718


Range status and errors

Selected range

Filename C:\mm\Mariah Carey\2014 - Me. I Am Mariah... The Elusive Chanteuse [3744049]\Mariah Carey - Me. I Am Mariah... The Elusive Chanteuse.wav

Peak level 95.0 %
Extraction speed 3.8 X
Range quality 100.0 %
Test CRC C87BE579
Copy CRC C87BE579
Copy OK

No errors occurred


AccurateRip summary

Track 1 accurately ripped (confidence 38) [1ED90E88] (AR v2)
Track 2 accurately ripped (confidence 38) [20030EFE] (AR v2)
Track 3 accurately ripped (confidence 38) [F204C503] (AR v2)
Track 4 accurately ripped (confidence 38) [2BE6F943] (AR v2)
Track 5 accurately ripped (confidence 38) [64DB8DAF] (AR v2)
Track 6 accurately ripped (confidence 38) [D3B96847] (AR v2)
Track 7 accurately ripped (confidence 38) [4600B4FD] (AR v2)
Track 8 accurately ripped (confidence 38) [4420503B] (AR v2)
Track 9 accurately ripped (confidence 38) [ABFCC4EF] (AR v2)
Track 10 accurately ripped (confidence 38) [3068DCD6] (AR v2)
Track 11 accurately ripped (confidence 38) [A42373AB] (AR v2)
Track 12 accurately ripped (confidence 38) [D0D658E7] (AR v2)
Track 13 accurately ripped (confidence 38) [150646D8] (AR v2)
Track 14 accurately ripped (confidence 37) [0138DD39] (AR v2)

All tracks accurately ripped

End of status report

---- CUETools DB Plugin V2.1.6

[CTDB TOCID: pFQcrorQWpX_LW.X2UZ4S0Lry1g-] found
Submit result: pFQcrorQWpX_LW.X2UZ4S0Lry1g- has been confirmed
Track | CTDB Status
1 | (78/78) Accurately ripped
2 | (78/78) Accurately ripped
3 | (78/78) Accurately ripped
4 | (78/78) Accurately ripped
5 | (78/78) Accurately ripped
6 | (78/78) Accurately ripped
7 | (77/78) Accurately ripped
8 | (78/78) Accurately ripped
9 | (78/78) Accurately ripped
10 | (78/78) Accurately ripped
11 | (78/78) Accurately ripped
12 | (78/78) Accurately ripped
13 | (78/78) Accurately ripped
14 | (76/78) Accurately ripped, or (1/78) differs in 839 samples @05:38:47-05:38:50
[свернуть]

Файл CUE

REM GENRE R&B
REM DATE 2014
REM DISCID C80E690E
REM COMMENT "ExactAudioCopy v1.3"
PERFORMER "Mariah Carey"
TITLE "Me. I Am Mariah... The Elusive Chanteuse"
REM COMPOSER ""
FILE "Mariah Carey - Me. I Am Mariah... The Elusive Chanteuse.flac" WAVE
TRACK 01 AUDIO
TITLE "Cry"
PERFORMER "Mariah Carey"
REM COMPOSER ""
INDEX 01 00:00:00
TRACK 02 AUDIO
TITLE "Faded"
PERFORMER "Mariah Carey"
REM COMPOSER ""
INDEX 01 04:48:32
TRACK 03 AUDIO
TITLE "Dedicated featuring NAS"
PERFORMER "Mariah Carey"
REM COMPOSER ""
INDEX 01 08:28:12
TRACK 04 AUDIO
TITLE "# Beautiful featuring Miguel"
PERFORMER "Mariah Carey"
REM COMPOSER ""
INDEX 01 12:41:30
TRACK 05 AUDIO
TITLE "Thirsty"
PERFORMER "Mariah Carey"
REM COMPOSER ""
INDEX 01 16:01:26
TRACK 06 AUDIO
TITLE "Make It Look Good"
PERFORMER "Mariah Carey"
REM COMPOSER ""
INDEX 01 19:26:72
TRACK 07 AUDIO
TITLE "You're Mine (Eternal)"
PERFORMER "Mariah Carey"
REM COMPOSER ""
INDEX 01 22:50:00
TRACK 08 AUDIO
TITLE "You Don't Know What To Do featuring Wale"
PERFORMER "Mariah Carey"
REM COMPOSER ""
INDEX 01 26:34:08
TRACK 09 AUDIO
TITLE "Supernatural with ''Dembabies'' A.K.A. Ms. Monroe & Mr. Moroccan Scott Cannon..."
PERFORMER "Mariah Carey"
REM COMPOSER ""
INDEX 01 31:21:47
TRACK 10 AUDIO
TITLE "Meteorite"
PERFORMER "Mariah Carey"
REM COMPOSER ""
INDEX 01 35:59:12
TRACK 11 AUDIO
TITLE "Camouflage"
PERFORMER "Mariah Carey"
REM COMPOSER ""
INDEX 01 39:49:65
TRACK 12 AUDIO
TITLE "Money ($*/...) featuring Fabolous"
PERFORMER "Mariah Carey"
REM COMPOSER ""
INDEX 01 44:38:34
TRACK 13 AUDIO
TITLE "One More Try"
PERFORMER "Mariah Carey"
REM COMPOSER ""
INDEX 01 49:33:23
TRACK 14 AUDIO
TITLE "Heavenly (No Ways Tired/Can't Give Up Now)"
PERFORMER "Mariah Carey"
REM COMPOSER ""
INDEX 01 55:50:49
[свернуть]

Лог проверки качества

AUDIOCHECKER v2.0 beta (build 457) - by Dester - [Ссылки могут видеть только зарегистрированные пользователи. ]
~~~~~~~~~~~~~~~~~~~~~~~~~~~~~~~~~~
-=== НЕ РЕДАКТИРУЙТЕ ЭТОТ ФАЙЛ! ===-

Путь: ...\2014 - Me. I Am Mariah... The Elusive Chanteuse [3744049]

1 -=- Mariah Carey - Me. I Am Mariah... The Elusive Chanteuse.flac -=- CDDA (100%)

167370420
[свернуть]

Спектр частот

[свернуть]

Скачать Mariah Carey - Me. I Am Mariah... The Elusive Chanteuse

[Ссылки могут видеть только зарегистрированные пользователи. ]

password: sergych
[свернуть]

Контрольная сумма (хеш-сумма) архива

MD5: 58a1e266eb9db5e1ac52856e8078fda9
[свернуть]
My opinion of release: 10/10
__________________
TAIFUN.Wings of Soul

Вверх
2 пользователя(ей) сказали cпасибо:
johnsilver (09.05.2017), swint68 (08.05.2017)
  #2
Старый 08.05.2017, 19:35
swint68
Меломан
Досье
 
Аватар для swint68
По умолчанию Re: Mariah Carey - Me. I Am Mariah... The Elusive Chanteuse

Спасибо!
Без изысков - хороший и добротный альбом.

Вверх
Пользователь сказал cпасибо:
sergych (09.05.2017)
Похожие темы
Тема Автор Раздел Ответов Последнее сообщение
Альбом Mariah Carey - Music Box sergych R&B 0 21.10.2015 22:26
Альбом Mariah Carey - Mariah Carey sergych R&B 0 17.09.2015 19:37
Сборник Mariah Carey - #1's sergych R&B 0 13.03.2015 21:16
Альбом Mariah Carey - Butterfly sergych R&B 0 12.03.2015 19:50
Альбом Mariah Carey - E=MC2 LUСIAN R&B 0 20.04.2008 00:25


Метки
2014 , disco , gospel , hip hop , mariah carey , me. i am mariah... the elusive chanteuse , pop-soul , r&b

Опции темы

Ваши права в разделе
Вы не можете создавать новые темы
Вы не можете отвечать в темах
Вы не можете прикреплять вложения
Вы не можете редактировать свои сообщения

Быстрый переход



Текущее время: 08:29. Часовой пояс GMT +3.
Powered by vBulletin® Version 3.8.7
Copyright ©2000 - 2017, vBulletin Solutions, Inc. Перевод: zCarot
© 2008 - 2017 Taifun With Song
Яндекс.Метрика