TAIFUN With Song
Вернуться   TAIFUN With Song > Music (обменник) > POP > Зарубежная Поп-Музыка
Расширенный поиск
А знаете ли Вы, что...
Чем прославился Боб Марли до того, как стать музыкантом?
«Знаменитый ямайский регги-музыкант Боб Марли в детстве был известен в своей деревне как талантливый предсказатель по линиям на ладонях.»
 
Опции темы

  #1
Старый 07.05.2017, 10:35
sergych
Координатор
Досье
 
Аватар для sergych
Релиз Julio Iglesias - 1100 Bel Air Place


1984 - Julio Iglesias - 1100 Bel Air Place




Исполнитель/Artist: Julio Iglesias
Альбом/Album: 1100 Bel Air Place
Год/Year: 1984
Жанр/Genre: Pop, soft rock, Latin pop, adult contemporary
Страна/Country: Австрия
Рекорд-лейбл/Record label: CBS Records
Номер в каталоге/Catalogue #: CDCBS 86308
Формат/Format: Free Lossless Audio Codec (*.flac)
Качество/Quality: Lossless
Тип рипа/RIP Type: image+.cue
Продолжительность/Length: 00:40:31
Источник/Source: Собственный рип
Размер/Size: 294.3 MB

Сканы в комплекте

Треклист

01. All Of You (with Diana Ross) [0:04:03.15]
02. Two Lovers [0:04:22.40]
03. Bambou Medley [0:03:52.62]
- Il Tape Sur Des Bambous
- Jamaica
04. The Air That I Breathe [0:03:54.65]
05. The Last Time [0:03:38.40]
06. Moonlight Lady [0:04:13.15]
07. When I Fall In Love [0:03:32.70]
08. Me Va, Me Va [0:06:07.13]
09. If (E Poi) [0:03:11.72]
10. To All The Girls I've Loved Before (with Willie Nelson) [0:03:34.05]
[свернуть]

youtube.com

[свернуть]

Исполнители/Performers

Julio Iglesias – main artist, vocals
Diana Ross - vocal (1)
The Beach Boys - vocal (4)
Willie Nelson - vocal (10)
Alexandra Brown, Kenny Cetera, Steven George, Tom Kelly, Richard Marx, Richard Page, Stephanie Spruill, Julia and Maxine Waters – backing vocals
Mike Landau, David Williams – guitars
John Barnes, Michael Boddicker, Robbie Buchanan, Michel Colombier, Rafael Ferro, David Foster, Nicky Hopkins, James Newton Howard, Randy Kerber, Steve Mitchell, Greg Phillinganes, John Van Tongeren – keyboards
Arnold Belnick, Isabelle Daskoff, Assa Drori, Henry Ferver, Joe Goodman, Reg Hill, Bill Hymanson, Kathy Lenski, Bill Nuttycombe, Stanley Plummer, Bob and Sheldon Sanov, Haim Shtrum, Marshall Sosson, Bob Sushel, Mary Tsumura, Gerald Vinci, Shari Zippert – violin
Stan Ackerman, Marilyn Baker, Myer Bello, Pamela Goldsmith, Allan Harshman, Virginia Majewski, Garey Nuttycombe, Dave Schwartz – viola
Ron Cooper, Larry Corbett, Douglas Davis, Ray Kelley, Jacqueline Lustgarten, Fred Seydora, David Speltz – cello
Charles Davis, Chuck Findley, Gary Grant, Larry Hall, Jerry Hey – brass
Erich Bulling
– horns
Richard Todd, Brad Warnaar – French horn
Les Benedict, Dick Hyde, Charles Loper, Lew McCreary, Dick Nash, Bill Reichenbach – trombone
Abraham Laboriel, Nathan East, Neil Stubenhaus, Mike Porcaro – bass
Carlos Vega – drums
Stan Getz - Saxophone
Luis Conte, Michael Fisher, Paulinho da Costa – percussion
[свернуть]

EAC лог

Exact Audio Copy V1.3 from 2. September 2016

EAC extraction logfile from 30. April 2017, 21:00

Julio Iglesias / 1100 Bel Air Place

Used drive : PLEXTOR DVDR PX-716A Adapter: 1 ID: 0

Read mode : Secure
Utilize accurate stream : Yes
Defeat audio cache : Yes
Make use of C2 pointers : No

Read offset correction : 30
Overread into Lead-In and Lead-Out : No
Fill up missing offset samples with silence : Yes
Delete leading and trailing silent blocks : No
Null samples used in CRC calculations : Yes
Used interface : Native Win32 interface for Win NT & 2000

Used output format : User Defined Encoder
Selected bitrate : 1024 kBit/s
Quality : High
Add ID3 tag : No
Command line compressor : C:\Program Files (x86)\Exact Audio Copy\FLAC\FLAC.EXE
Additional command line options : -6 -V -T "ARTIST=%artist%" -T "TITLE=%title%" -T "ALBUM=%albumtitle%" -T "DATE=%year%" -T "TRACKNUMBER=%tracknr%" -T "GENRE=%genre%" -T "COMMENT=%comment%" -T "BAND=%albuminterpret%" -T "ALBUMARTIST=%albuminterpret%" -T "COMPOSER=%composer%" %haslyrics%--tag-from-file=LYRICS="%lyricsfile%"%haslyrics% -T "DISCNUMBER=%cdnumber%" -T "TOTALDISCS=%totalcds%" -T "TOTALTRACKS=%numtracks%" %hascover%--picture="%coverfile%"%hascover% %source% -o %dest%


TOC of the extracted CD

Track | Start | Length | Start sector | End sector
---------------------------------------------------------
1 | 0:00.00 | 4:03.15 | 0 | 18239
2 | 4:03.15 | 4:22.40 | 18240 | 37929
3 | 8:25.55 | 3:52.62 | 37930 | 55391
4 | 12:18.42 | 3:54.65 | 55392 | 73006
5 | 16:13.32 | 3:38.40 | 73007 | 89396
6 | 19:51.72 | 4:13.15 | 89397 | 108386
7 | 24:05.12 | 3:32.70 | 108387 | 124356
8 | 27:38.07 | 6:07.13 | 124357 | 151894
9 | 33:45.20 | 3:11.72 | 151895 | 166291
10 | 36:57.17 | 3:34.05 | 166292 | 182346


Range status and errors

Selected range

Filename C:\mm\Julio Iglesias\1984 - 1100 Bel Air Place [CDCBS 86308]\Julio Iglesias - 1100 Bel Air Place.wav

Peak level 87.8 %
Extraction speed 3.8 X
Range quality 100.0 %
Test CRC 93F62C46
Copy CRC 93F62C46
Copy OK

No errors occurred


AccurateRip summary

Track 1 accurately ripped (confidence 12) [455CA52E] (AR v2)
Track 2 accurately ripped (confidence 12) [E3117518] (AR v2)
Track 3 accurately ripped (confidence 12) [49724028] (AR v2)
Track 4 accurately ripped (confidence 12) [956C4C26] (AR v2)
Track 5 accurately ripped (confidence 12) [69A8626F] (AR v2)
Track 6 accurately ripped (confidence 12) [B2CDAF30] (AR v2)
Track 7 accurately ripped (confidence 12) [ECB98483] (AR v2)
Track 8 accurately ripped (confidence 12) [D47A9B62] (AR v2)
Track 9 accurately ripped (confidence 12) [82E77813] (AR v2)
Track 10 accurately ripped (confidence 13) [D93EE220] (AR v2)

All tracks accurately ripped

End of status report

---- CUETools DB Plugin V2.1.6

[CTDB TOCID: ptpZsnWR4CRUjH9.0Ghw6ciypCM-] found
Submit result: ptpZsnWR4CRUjH9.0Ghw6ciypCM- has been confirmed
Track | CTDB Status
1 | (42/67) Accurately ripped
2 | (43/67) Accurately ripped
3 | (43/67) Accurately ripped
4 | (43/67) Accurately ripped
5 | (43/67) Accurately ripped
6 | (43/67) Accurately ripped
7 | (43/67) Accurately ripped
8 | (43/67) Accurately ripped
9 | (43/67) Accurately ripped
10 | (43/67) Accurately ripped
[свернуть]

Файл CUE

REM GENRE Pop
REM DATE 1984
REM DISCID 7D097F0A
REM COMMENT "ExactAudioCopy v1.3"
PERFORMER "Julio Iglesias"
TITLE "1100 Bel Air Place"
REM COMPOSER ""
FILE "Julio Iglesias - 1100 Bel Air Place.flac" WAVE
TRACK 01 AUDIO
TITLE "All Of You"
PERFORMER "Julio Iglesias"
REM COMPOSER ""
INDEX 01 00:00:00
TRACK 02 AUDIO
TITLE "Two Lovers"
PERFORMER "Julio Iglesias"
REM COMPOSER ""
INDEX 00 04:02:12
INDEX 01 04:03:15
TRACK 03 AUDIO
TITLE "Bambou Medley"
PERFORMER "Julio Iglesias"
REM COMPOSER ""
INDEX 00 08:23:52
INDEX 01 08:25:55
TRACK 04 AUDIO
TITLE "The Air That I Breathe"
PERFORMER "Julio Iglesias"
REM COMPOSER ""
INDEX 00 12:16:65
INDEX 01 12:18:42
TRACK 05 AUDIO
TITLE "The Last Time"
PERFORMER "Julio Iglesias"
REM COMPOSER ""
INDEX 00 16:12:07
INDEX 01 16:13:32
TRACK 06 AUDIO
TITLE "Moonlight Lady"
PERFORMER "Julio Iglesias"
REM COMPOSER ""
INDEX 00 19:50:62
INDEX 01 19:51:72
TRACK 07 AUDIO
TITLE "When I Fall In Love"
PERFORMER "Julio Iglesias"
REM COMPOSER ""
INDEX 00 24:02:65
INDEX 01 24:05:12
TRACK 08 AUDIO
TITLE "Me Va, Me Va"
PERFORMER "Julio Iglesias"
REM COMPOSER ""
INDEX 00 27:34:40
INDEX 01 27:38:07
TRACK 09 AUDIO
TITLE "If (E Poi)"
PERFORMER "Julio Iglesias"
REM COMPOSER ""
INDEX 00 33:42:47
INDEX 01 33:45:20
TRACK 10 AUDIO
TITLE "To All The Girls I've Loved Before"
PERFORMER "Julio Iglesias"
REM COMPOSER ""
INDEX 00 36:56:07
INDEX 01 36:57:17
[свернуть]

Лог проверки качества

AUDIOCHECKER v2.0 beta (build 457) - by Dester -
~~~~~~~~~~~~~~~~~~~~~~~~~~~~~~~~~~
-=== НЕ РЕДАКТИРУЙТЕ ЭТОТ ФАЙЛ! ===-

Путь: ...\1984 - 1100 Bel Air Place [CDCBS 86308]

1 -=- Julio Iglesias - 1100 Bel Air Place.flac -=- MPEG (95%)

231470324
[свернуть]

Спектр частот

[свернуть]

Скачать Julio Iglesias - 1100 Bel Air Place



password: sergych
[свернуть]

Контрольная сумма (хеш-сумма) архива

MD5: b242d55887e70ea802d6943e795c58b6
[свернуть]
My opinion of release: 10/10
__________________
TAIFUN.Wings of Soul

Вверх
Пользователь сказал cпасибо:
johnsilver (09.05.2017)
Похожие темы
Тема Автор Раздел Ответов Последнее сообщение
Альбом Julio Iglesias - Raices sergych Зарубежная Поп-Музыка 0 04.09.2016 21:45
Альбом Julio Iglesias - Calor sergych Зарубежная Поп-Музыка 0 19.08.2016 23:54
Альбом Julio Iglesias - Julio sergych Зарубежная Поп-Музыка 1 05.04.2015 22:55
Сборник Julio Iglesias - Love Songs sergych Зарубежная Поп-Музыка 0 05.09.2014 18:28
Альбом Julio Iglesias - Crazy sergych Зарубежная Поп-Музыка 0 26.04.2014 16:10


Метки
1100 bel air place , 1984 , adult contemporary , julio iglesias , latin pop , pop , soft rock

Опции темы

Ваши права в разделе
Вы не можете создавать новые темы
Вы не можете отвечать в темах
Вы не можете прикреплять вложения
Вы не можете редактировать свои сообщения

Быстрый переход



Текущее время: 21:16. Часовой пояс GMT +3.
Powered by vBulletin® Version 3.8.7
Copyright ©2000 - 2017, vBulletin Solutions, Inc. Перевод: zCarot
© 2008 - 2017 Taifun With Song
Яндекс.Метрика