TAIFUN With Song
Вернуться   TAIFUN With Song > Music (обменник) > POP > Зарубежная Поп-Музыка
Расширенный поиск
А знаете ли Вы, что...
Каким образом в Древнем Китае для определения эталона длины применяли колокол?
«В Древнем Китае эталоном меры длины служил специальный колокол, настроенный на заданную высоту звучания. В другом приспособлении натягивалась струна, чтобы её звук соответствовал данной высоте, и получившаяся длина струны принималась за эталон.»
 
Опции темы

  #1
Старый 05.05.2017, 18:29
sergych
Координатор
Досье
 
Аватар для sergych
Релиз Janet Jackson - The Velvet Rope


1997 - Janet Jackson - The Velvet Rope




Исполнитель/Artist: Janet Jackson
Альбом/Album: The Velvet Rope
Год/Year: 1997
Жанр/Genre: Pop, Funk, R&B
Страна/Country: Нидерланды
Рекорд-лейбл/Record label: Black Doll
Номер в каталоге/Catalogue #: 7243 8 44762 2 9 CDV 2860
Формат/Format: Free Lossless Audio Codec (*.flac)
Качество/Quality: Lossless
Тип рипа/RIP Type: image+.cue
Продолжительность/Length: 01:15:33
Источник/Source: Собственный рип
Размер/Size: 628.2 MB

Сканы в комплекте

Треклист

01. Interlude - Twisted Elegance [0:00:42.35]
02. Janet Jackson & Vanessa Mae / Velvet Rope [0:04:55.65]
03. You [0:04:42.50]
04. Janet Jackson & Q-Tip And Joni Mitchell / Got 'til It's Gone [0:04:01.57]
05. Interlude - Speaker Phone [0:00:54.10]
06. My Need [0:03:44.05]
07. Interlude - Fasten Your Seatbelt [0:00:19.08]
08. Go Deep [0:04:42.02]
09. Free Xone [0:04:57.05]
10. Interlude - Memory [0:00:04.53]
11. Together Again [0:05:01.15]
12. Interlude - Online [0:00:19.27]
13. Empty [0:04:32.55]
14. Interlude - Full [0:00:12.65]
15. What About [0:04:24.20]
16. Every Time [0:04:17.08]
17. Tonight's The Night [0:05:07.50]
18. I Get Lonely [0:05:17.42]
19. Rope Burn [0:04:15.60]
20. Anything [0:04:54.63]
21. Interlude - Sad [0:00:10.65]
22. Special [0:07:54.62]
[свернуть]

youtube.com

[свернуть]

Исполнители/Performers

Janet Jackson – vocals, background vocals, producer, executive producer, vocal arrangement, rhythm arrangements
Alyssa Hanson, Debbie Morrison, Kelly Konno, Miko Salone, Prof. T., Shawnette Heard, Tina Landon – vocals
Alexander Richbourg – vocals, drum programming, rhythm arrangements
David Barry, Mike Scott, Nicholas Raths – guitar
Lee Blaske – string arrangements
Brenda Mickens, Carolyn Daws, Daria Tedeschi, Hanley Daws, Jan Chong, Leslie Shank, Liz Sobieski, Mike Sobieski – violin
Vanessa-Mae – violin, performer
Alice Preves, Charles Gray, Glen Donnellen, Myrna Rain – viola
Camilla Heller, Dale Newton, Daryl Skobba, Joshua Koestenbaum – cello
Lynne Erickson – trumpet
Gary Raynor – bass
James "Big Jim" Wright – organ, keyboards, vocals, rhythm arrangements
United Children's Choir – choir, chorus
Joni Mitchell – performer
Q-Tip – rap, performer
[свернуть]

EAC лог

Exact Audio Copy V1.3 from 2. September 2016

EAC extraction logfile from 1. May 2017, 16:47

Janet Jackson / The Velvet Rope

Used drive : PLEXTOR DVDR PX-716A Adapter: 1 ID: 0

Read mode : Secure
Utilize accurate stream : Yes
Defeat audio cache : Yes
Make use of C2 pointers : No

Read offset correction : 30
Overread into Lead-In and Lead-Out : No
Fill up missing offset samples with silence : Yes
Delete leading and trailing silent blocks : No
Null samples used in CRC calculations : Yes
Used interface : Native Win32 interface for Win NT & 2000

Used output format : User Defined Encoder
Selected bitrate : 1024 kBit/s
Quality : High
Add ID3 tag : No
Command line compressor : C:\Program Files (x86)\Exact Audio Copy\FLAC\FLAC.EXE
Additional command line options : -6 -V -T "ARTIST=%artist%" -T "TITLE=%title%" -T "ALBUM=%albumtitle%" -T "DATE=%year%" -T "TRACKNUMBER=%tracknr%" -T "GENRE=%genre%" -T "COMMENT=%comment%" -T "BAND=%albuminterpret%" -T "ALBUMARTIST=%albuminterpret%" -T "COMPOSER=%composer%" %haslyrics%--tag-from-file=LYRICS="%lyricsfile%"%haslyrics% -T "DISCNUMBER=%cdnumber%" -T "TOTALDISCS=%totalcds%" -T "TOTALTRACKS=%numtracks%" %hascover%--picture="%coverfile%"%hascover% %source% -o %dest%


TOC of the extracted CD

Track | Start | Length | Start sector | End sector
---------------------------------------------------------
1 | 0:00.00 | 0:42.35 | 0 | 3184
2 | 0:42.35 | 4:55.65 | 3185 | 25374
3 | 5:38.25 | 4:42.50 | 25375 | 46574
4 | 10:21.00 | 4:01.57 | 46575 | 64706
5 | 14:22.57 | 0:54.10 | 64707 | 68766
6 | 15:16.67 | 3:44.05 | 68767 | 85571
7 | 19:00.72 | 0:19.08 | 85572 | 87004
8 | 19:20.05 | 4:42.02 | 87005 | 108156
9 | 24:02.07 | 4:57.05 | 108157 | 130436
10 | 28:59.12 | 0:04.53 | 130437 | 130789
11 | 29:03.65 | 5:01.15 | 130790 | 153379
12 | 34:05.05 | 0:19.27 | 153380 | 154831
13 | 34:24.32 | 4:32.55 | 154832 | 175286
14 | 38:57.12 | 0:12.65 | 175287 | 176251
15 | 39:10.02 | 4:24.20 | 176252 | 196071
16 | 43:34.22 | 4:17.08 | 196072 | 215354
17 | 47:51.30 | 5:07.50 | 215355 | 238429
18 | 52:59.05 | 5:17.42 | 238430 | 262246
19 | 58:16.47 | 4:15.60 | 262247 | 281431
20 | 62:32.32 | 4:54.63 | 281432 | 303544
21 | 67:27.20 | 0:10.65 | 303545 | 304359
22 | 67:38.10 | 7:54.62 | 304360 | 339971


Range status and errors

Selected range

Filename C:\mm\Janet Jackson\1997 - The Velvet Rope [7243 8 44762 2 9_CDV 2860]\Janet Jackson - The Velvet Rope.wav

Peak level 100.0 %
Extraction speed 3.8 X
Range quality 100.0 %
Test CRC 5C7A9BFB
Copy CRC 5C7A9BFB
Copy OK

No errors occurred


AccurateRip summary

Track 1 accurately ripped (confidence 200) [99C15694] (AR v2)
Track 2 accurately ripped (confidence 200) [5CB68FEB] (AR v2)
Track 3 accurately ripped (confidence 200) [DAA9B28C] (AR v2)
Track 4 accurately ripped (confidence 200) [E13D1384] (AR v2)
Track 5 accurately ripped (confidence 200) [117F1CF3] (AR v2)
Track 6 accurately ripped (confidence 200) [B198E5EA] (AR v2)
Track 7 accurately ripped (confidence 200) [3DE60761] (AR v2)
Track 8 accurately ripped (confidence 200) [5DB8AC8F] (AR v2)
Track 9 accurately ripped (confidence 200) [8A260AFC] (AR v2)
Track 10 accurately ripped (confidence 165) [1884B2E9] (AR v2)
Track 11 accurately ripped (confidence 200) [4D522AD2] (AR v2)
Track 12 accurately ripped (confidence 200) [73B272AB] (AR v2)
Track 13 accurately ripped (confidence 200) [6B91A1A0] (AR v2)
Track 14 accurately ripped (confidence 200) [A6E3717F] (AR v2)
Track 15 accurately ripped (confidence 200) [7A218515] (AR v2)
Track 16 accurately ripped (confidence 200) [B581181B] (AR v2)
Track 17 accurately ripped (confidence 200) [77445725] (AR v2)
Track 18 accurately ripped (confidence 200) [41759542] (AR v2)
Track 19 accurately ripped (confidence 200) [D427B676] (AR v2)
Track 20 accurately ripped (confidence 200) [3BBF7336] (AR v2)
Track 21 accurately ripped (confidence 200) [DF307F66] (AR v2)
Track 22 accurately ripped (confidence 200) [3CAB4D48] (AR v2)

All tracks accurately ripped

End of status report

---- CUETools DB Plugin V2.1.6

[CTDB TOCID: jgVtcqz8moS8qZiZGkEgkhJCFy0-] found
Submit result: jgVtcqz8moS8qZiZGkEgkhJCFy0- has been confirmed
Track | CTDB Status
1 | (533/538) Accurately ripped
2 | (533/538) Accurately ripped
3 | (533/538) Accurately ripped
4 | (534/538) Accurately ripped
5 | (533/538) Accurately ripped
6 | (534/538) Accurately ripped
7 | (535/538) Accurately ripped
8 | (533/538) Accurately ripped
9 | (535/538) Accurately ripped
10 | (535/538) Accurately ripped
11 | (533/538) Accurately ripped
12 | (535/538) Accurately ripped
13 | (532/538) Accurately ripped
14 | (535/538) Accurately ripped
15 | (531/538) Accurately ripped
16 | (531/538) Accurately ripped
17 | (534/538) Accurately ripped
18 | (533/538) Accurately ripped
19 | (530/538) Accurately ripped
20 | (527/538) Accurately ripped
21 | (532/538) Accurately ripped
22 | (522/538) Accurately ripped
[свернуть]

Файл CUE

TITLE "The Velvet Rope"
PERFORMER "Janet Jackson"
REM GENRE "R&B"
REM DATE "1997"
REM DISCNUMBER "1/1"
FILE "Janet Jackson - The Velvet Rope.mp3" MP3
TRACK 01 AUDIO
INDEX 01 00:00:00
TITLE "Interlude - Twisted Elegance"
REM COMMENT "ExactAudioCopy v1.3"
REM COMPOSER ""
TRACK 02 AUDIO
INDEX 01 00:42:35
TITLE "Velvet Rope"
PERFORMER "Janet Jackson & Vanessa Mae"
REM COMMENT "ExactAudioCopy v1.3"
REM COMPOSER ""
TRACK 03 AUDIO
INDEX 01 05:38:24
TITLE "You"
REM COMMENT "ExactAudioCopy v1.3"
REM COMPOSER ""
TRACK 04 AUDIO
INDEX 01 10:21:00
TITLE "Got 'til It's Gone"
PERFORMER "Janet Jackson & Q-Tip And Joni Mitchell"
REM COMMENT "ExactAudioCopy v1.3"
REM COMPOSER ""
TRACK 05 AUDIO
INDEX 01 14:22:56
TITLE "Interlude - Speaker Phone"
REM COMMENT "ExactAudioCopy v1.3"
REM COMPOSER ""
TRACK 06 AUDIO
INDEX 01 15:16:66
TITLE "My Need"
REM COMMENT "ExactAudioCopy v1.3"
REM COMPOSER ""
TRACK 07 AUDIO
INDEX 01 19:00:72
TITLE "Interlude - Fasten Your Seatbelt"
REM COMMENT "ExactAudioCopy v1.3"
REM COMPOSER ""
TRACK 08 AUDIO
INDEX 01 19:20:04
TITLE "Go Deep"
REM COMMENT "ExactAudioCopy v1.3"
REM COMPOSER ""
TRACK 09 AUDIO
INDEX 01 24:02:07
TITLE "Free Xone"
REM COMMENT "ExactAudioCopy v1.3"
REM COMPOSER ""
TRACK 10 AUDIO
INDEX 01 28:59:12
TITLE "Interlude - Memory"
REM COMMENT "ExactAudioCopy v1.3"
REM COMPOSER ""
TRACK 11 AUDIO
INDEX 01 29:03:65
TITLE "Together Again"
REM COMMENT "ExactAudioCopy v1.3"
REM COMPOSER ""
TRACK 12 AUDIO
INDEX 01 34:05:04
TITLE "Interlude - Online"
REM COMMENT "ExactAudioCopy v1.3"
REM COMPOSER ""
TRACK 13 AUDIO
INDEX 01 34:24:32
TITLE "Empty"
REM COMMENT "ExactAudioCopy v1.3"
REM COMPOSER ""
TRACK 14 AUDIO
INDEX 01 38:57:11
TITLE "Interlude - Full"
REM COMMENT "ExactAudioCopy v1.3"
REM COMPOSER ""
TRACK 15 AUDIO
INDEX 01 39:10:01
TITLE "What About"
REM COMMENT "ExactAudioCopy v1.3"
REM COMPOSER ""
TRACK 16 AUDIO
INDEX 01 43:34:22
TITLE "Every Time"
REM COMMENT "ExactAudioCopy v1.3"
REM COMPOSER ""
TRACK 17 AUDIO
INDEX 01 47:51:30
TITLE "Tonight's The Night"
REM COMMENT "ExactAudioCopy v1.3"
REM COMPOSER ""
TRACK 18 AUDIO
INDEX 01 52:59:04
TITLE "I Get Lonely"
REM COMMENT "ExactAudioCopy v1.3"
REM COMPOSER ""
TRACK 19 AUDIO
INDEX 01 58:16:46
TITLE "Rope Burn"
REM COMMENT "ExactAudioCopy v1.3"
REM COMPOSER ""
TRACK 20 AUDIO
INDEX 01 62:32:32
TITLE "Anything"
REM COMMENT "ExactAudioCopy v1.3"
REM COMPOSER ""
TRACK 21 AUDIO
INDEX 01 67:27:20
TITLE "Interlude - Sad"
REM COMMENT "ExactAudioCopy v1.3"
REM COMPOSER ""
TRACK 22 AUDIO
INDEX 01 67:38:09
TITLE "Special"
REM COMMENT "ExactAudioCopy v1.3"
REM COMPOSER ""
[свернуть]

Лог проверки качества

AUDIOCHECKER v2.0 beta (build 457) - by Dester - [Ссылки могут видеть только зарегистрированные пользователи. ]
~~~~~~~~~~~~~~~~~~~~~~~~~~~~~~~~~~
-=== НЕ РЕДАКТИРУЙТЕ ЭТОТ ФАЙЛ! ===-

Путь: ...\1997 - The Velvet Rope [7243 8 44762 2 9_CDV 2860]

1 -=- Janet Jackson - The Velvet Rope.flac -=- CDDA (100%)

39164500
[свернуть]

Спектр частот

[свернуть]

Скачать Janet Jackson - The Velvet Rope

[Ссылки могут видеть только зарегистрированные пользователи. ]

password: sergych
[свернуть]

Контрольная сумма (хеш-сумма) архива

MD5: 2097d1927746f8cdb795771d270f3049
[свернуть]
My opinion of release: 10/10
__________________
TAIFUN.Wings of Soul

Вверх
2 пользователя(ей) сказали cпасибо:
johnsilver (06.05.2017), swint68 (05.05.2017)
Похожие темы
Тема Автор Раздел Ответов Последнее сообщение
Альбом Janet Jackson - Janet sergych Зарубежная Поп-Музыка 2 16.04.2015 10:12
Альбом Janet Jackson - All For You sergych Зарубежная Поп-Музыка 0 17.06.2010 02:13
Альбом Janet Jackson - Janet. Remixed sergych Зарубежная Поп-Музыка 0 15.06.2010 21:14
Альбом Janet Jackson - Janet Jackson sergych Зарубежная Поп-Музыка 0 15.06.2010 12:05
Релиз Janet Jackson - I.C.O.N. PUPOKIN Зарубежная Поп-Музыка 0 04.01.2009 10:53


Метки
1997 , funk , janet jackson , pop , r&b , the velvet rope

Опции темы

Ваши права в разделе
Вы не можете создавать новые темы
Вы не можете отвечать в темах
Вы не можете прикреплять вложения
Вы не можете редактировать свои сообщения

Быстрый переход



Текущее время: 17:04. Часовой пояс GMT +3.
Powered by vBulletin® Version 3.8.7
Copyright ©2000 - 2017, vBulletin Solutions, Inc. Перевод: zCarot
© 2008 - 2017 Taifun With Song
Яндекс.Метрика