TAIFUN With Song
Навигация
Jazz и Blues Гибкая ритмика, импровизационное начало, гармонии и мелодии - все это Jazz. Blues - жизнеутверждающая музыка, рожденная из душевной боли

А знаете ли Вы, что...
Музыка какой рок-группы привлекает акул?
«Австралиец Мэтт Уоллер занимается организацией подводных туров для любителей посмотреть на акул. Традиционно для приманки хищников он использовал рыбу, однако недавно случайно обнаружил, что акул привлекает музыка рок-группы AC/DC. Предположительно, акулы реагируют на вибрацию низких частот, так как у них нет ушей. Сейчас компания Уоллера — единственный туроператор в мире, использующий музыку для приманки, однако он полагает, что конкуренты вскоре последуют его примеру.»
 
Опции темы

  #1
Старый 04.05.2017, 18:24
sergych
Координатор
Досье
 
Аватар для sergych
Релиз Various Artists - The Best Of Swing


2001 - Various Artists - The Best Of Swing




Исполнитель/Artist: Various Artists
Альбом/Album: The Best Of Swing
Год/Year: 2001
Жанр/Genre: Jazz, Swing
Страна/Country: Германия
Рекорд-лейбл/Record label: Pegasus
Номер в каталоге/Catalogue #: PGN CD 855
Формат/Format: Free Lossless Audio Codec (*.flac)
Качество/Quality: Lossless
Тип рипа/RIP Type: image+.cue
Продолжительность/Length: 01:03:23
Источник/Source: Собственный рип
Размер/Size: 154.4 MB

Сканы в комплекте

Треклист

01. Squadronaires With Beryl Davis - Milkman, Keep Those Bottles Quiet [0:02:32.47]
02. Maurice Winnick With Vera Lynn - So Many Memories [0:02:55.72]
03. Madame Tussauds Dance Orchestra - Wild Goose Chase [0:02:51.19]
04. Bert Firman Orch With Sam Costa - Swing High, Swing Low [0:02:59.46]
05. Primo Scala's Accordian Band - Serenade In The Night [0:03:00.48]
06. Harry Leader Orch - Southpaw Special [0:02:42.50]
07. New Grosvenor House Band - That's What Life Is Made Of [0:03:02.10]
08. Skyrockets With Beryl Davis - October Mood [0:03:01.44]
09. Billy Merrin & His Commanders With Sam Browne - We'll Make Hay While The Sun Shines [0:02:53.23]
10. Ronnie Munro With Jack Cooper - The Lambeth Walk [0:03:13.24]
11. RAF Dance Orch With Sid Colin - It's Foolish But Fun [0:02:46.03]
12. Kit Kat Band - Piccadilly Strutt [0:03:02.36]
13. Scott Wood - I Only Have Eyes For You [0:02:55.22]
14. Skyrockets - The Neighbours Complain [0:02:57.53]
15. Carroll Gibbons & Savoy Orpheans - Better Think Twice [0:03:07.69]
16. Maurice Winnich With Sam Costa & Judy Shirley - The Sweetest Music This Side Of Heaven [0:02:36.74]
17. Louis Levy - Pennies From Heaven [0:02:25.65]
18. Squadronaires With George Evans - It's Been A Long Long Time [0:03:05.30]
19. RAF Dance Orch With Sid Colin - Whistler's Mother In Law [0:03:19.35]
20. Six Swingers With Brian Lawrence - Rhythm Is Our Business [0:02:26.21]
21. Percival Mackey's Band - The Half Of It Dearie Blues [0:02:26.09]
22. Debroy Somers With Dan Donovan - You And The Night And The Music [0:03:00.04]
[свернуть]

youtube.com

[свернуть]

EAC лог

Exact Audio Copy V1.3 from 2. September 2016

EAC extraction logfile from 30. April 2017, 23:11

Various Artists / The Best Of Swing

Used drive : PLEXTOR DVDR PX-716A Adapter: 1 ID: 0

Read mode : Secure
Utilize accurate stream : Yes
Defeat audio cache : Yes
Make use of C2 pointers : No

Read offset correction : 30
Overread into Lead-In and Lead-Out : No
Fill up missing offset samples with silence : Yes
Delete leading and trailing silent blocks : No
Null samples used in CRC calculations : Yes
Used interface : Native Win32 interface for Win NT & 2000

Used output format : User Defined Encoder
Selected bitrate : 1024 kBit/s
Quality : High
Add ID3 tag : No
Command line compressor : C:\Program Files (x86)\Exact Audio Copy\FLAC\FLAC.EXE
Additional command line options : -6 -V -T "ARTIST=%artist%" -T "TITLE=%title%" -T "ALBUM=%albumtitle%" -T "DATE=%year%" -T "TRACKNUMBER=%tracknr%" -T "GENRE=%genre%" -T "COMMENT=%comment%" -T "BAND=%albuminterpret%" -T "ALBUMARTIST=%albuminterpret%" -T "COMPOSER=%composer%" %haslyrics%--tag-from-file=LYRICS="%lyricsfile%"%haslyrics% -T "DISCNUMBER=%cdnumber%" -T "TOTALDISCS=%totalcds%" -T "TOTALTRACKS=%numtracks%" %hascover%--picture="%coverfile%"%hascover% %source% -o %dest%


TOC of the extracted CD

Track | Start | Length | Start sector | End sector
---------------------------------------------------------
1 | 0:00.00 | 2:32.47 | 0 | 11446
2 | 2:32.47 | 2:55.72 | 11447 | 24643
3 | 5:28.44 | 2:51.19 | 24644 | 37487
4 | 8:19.63 | 2:59.46 | 37488 | 50958
5 | 11:19.34 | 3:00.48 | 50959 | 64506
6 | 14:20.07 | 2:42.50 | 64507 | 76706
7 | 17:02.57 | 3:02.10 | 76707 | 90366
8 | 20:04.67 | 3:01.44 | 90367 | 103985
9 | 23:06.36 | 2:53.23 | 103986 | 116983
10 | 25:59.59 | 3:13.24 | 116984 | 131482
11 | 29:13.08 | 2:46.03 | 131483 | 143935
12 | 31:59.11 | 3:02.36 | 143936 | 157621
13 | 35:01.47 | 2:55.22 | 157622 | 170768
14 | 37:56.69 | 2:57.53 | 170769 | 184096
15 | 40:54.47 | 3:07.69 | 184097 | 198190
16 | 44:02.41 | 2:36.74 | 198191 | 209964
17 | 46:39.40 | 2:25.65 | 209965 | 220904
18 | 49:05.30 | 3:05.30 | 220905 | 234809
19 | 52:10.60 | 3:19.35 | 234810 | 249769
20 | 55:30.20 | 2:26.21 | 249770 | 260740
21 | 57:56.41 | 2:26.09 | 260741 | 271699
22 | 60:22.50 | 3:00.04 | 271700 | 285203


Range status and errors

Selected range

Filename C:\mm\VA\2001 - The Best Of Swing [PGN CD 855]\Various Artists - The Best Of Swing.wav

Peak level 99.6 %
Extraction speed 3.7 X
Range quality 99.9 %
Test CRC C8950E81
Copy CRC C8950E81
Copy OK

No errors occurred


AccurateRip summary

Track 1 cannot be verified as accurate (confidence 1) [CEAF6C07], AccurateRip returned [5C53EF27] (AR v2)
Track 2 cannot be verified as accurate (confidence 1) [17CA8DB4], AccurateRip returned [85760021] (AR v2)
Track 3 cannot be verified as accurate (confidence 1) [5CFE65CE], AccurateRip returned [94E4A392] (AR v2)
Track 4 cannot be verified as accurate (confidence 1) [2CD9650C], AccurateRip returned [04393D7F] (AR v2)
Track 5 cannot be verified as accurate (confidence 1) [76E758C7], AccurateRip returned [D5ABAFA7] (AR v2)
Track 6 cannot be verified as accurate (confidence 1) [212A094D], AccurateRip returned [CC65BBF2] (AR v2)
Track 7 cannot be verified as accurate (confidence 1) [D1DC326F], AccurateRip returned [079765F2] (AR v2)
Track 8 cannot be verified as accurate (confidence 1) [403DCDA2], AccurateRip returned [65EFF6D7] (AR v2)
Track 9 cannot be verified as accurate (confidence 1) [8015D995], AccurateRip returned [177E6CA3] (AR v2)
Track 10 cannot be verified as accurate (confidence 1) [6C25083D], AccurateRip returned [3DDADD03] (AR v2)
Track 11 cannot be verified as accurate (confidence 1) [76A7419F], AccurateRip returned [C7A19359] (AR v2)
Track 12 cannot be verified as accurate (confidence 1) [7DA5BCCD], AccurateRip returned [8F20D2BF] (AR v2)
Track 13 cannot be verified as accurate (confidence 1) [0FD1B905], AccurateRip returned [8E943977] (AR v2)
Track 14 cannot be verified as accurate (confidence 1) [922F7059], AccurateRip returned [9D92732D] (AR v2)
Track 15 cannot be verified as accurate (confidence 1) [1FE78D0D], AccurateRip returned [B6E2216B] (AR v2)
Track 16 cannot be verified as accurate (confidence 1) [6CA140A2], AccurateRip returned [B32D8D4D] (AR v2)
Track 17 cannot be verified as accurate (confidence 1) [B2214646], AccurateRip returned [CA54624B] (AR v2)
Track 18 cannot be verified as accurate (confidence 1) [5BEBA53C], AccurateRip returned [B8B200D2] (AR v2)
Track 19 cannot be verified as accurate (confidence 1) [2511A695], AccurateRip returned [921D16D5] (AR v2)
Track 20 cannot be verified as accurate (confidence 1) [B89A256E], AccurateRip returned [4940BDD2] (AR v2)
Track 21 cannot be verified as accurate (confidence 1) [F13D7165], AccurateRip returned [B0012A7A] (AR v2)
Track 22 cannot be verified as accurate (confidence 1) [033A65E5], AccurateRip returned [3EE5A0FD] (AR v2)

No tracks could be verified as accurate
You may have a different pressing from the one(s) in the database

End of status report

---- CUETools DB Plugin V2.1.6

[CTDB TOCID: lwWuh3PazpZHB149nOgwiDEr3yQ-] found
Submit result: lwWuh3PazpZHB149nOgwiDEr3yQ- has been confirmed
Track | CTDB Status
1 | (1/1) Accurately ripped
2 | (1/1) Accurately ripped
3 | (1/1) Accurately ripped
4 | (1/1) Accurately ripped
5 | (1/1) Accurately ripped
6 | (1/1) Accurately ripped
7 | (1/1) Accurately ripped
8 | (1/1) Accurately ripped
9 | (1/1) Accurately ripped
10 | (1/1) Accurately ripped
11 | (1/1) Accurately ripped
12 | (1/1) Accurately ripped
13 | (1/1) Accurately ripped
14 | (1/1) Accurately ripped
15 | (1/1) Accurately ripped
16 | (1/1) Accurately ripped
17 | (1/1) Accurately ripped
18 | (1/1) Accurately ripped
19 | (1/1) Accurately ripped
20 | (1/1) Accurately ripped
21 | (1/1) Accurately ripped
22 | (1/1) Accurately ripped
[свернуть]

Файл CUE

REM GENRE Swing
REM DATE 2001
REM DISCID 1C0EDA16
REM COMMENT "ExactAudioCopy v1.3"
PERFORMER "Various Artists"
TITLE "The Best Of Swing"
REM COMPOSER ""
FILE "Various Artists - The Best Of Swing.flac" WAVE
TRACK 01 AUDIO
TITLE "Squadronaires With Beryl Davis - Milkman, Keep Those Bottles Quiet"
PERFORMER "Various Artists"
REM COMPOSER ""
INDEX 01 00:00:00
TRACK 02 AUDIO
TITLE "Maurice Winnick With Vera Lynn - So Many Memories"
PERFORMER "Various Artists"
REM COMPOSER ""
INDEX 00 02:30:65
INDEX 01 02:32:47
TRACK 03 AUDIO
TITLE "Madame Tussauds Dance Orchestra - Wild Goose Chase"
PERFORMER "Various Artists"
REM COMPOSER ""
INDEX 00 05:26:62
INDEX 01 05:28:44
TRACK 04 AUDIO
TITLE "Bert Firman Orch With Sam Costa - Swing High, Swing Low"
PERFORMER "Various Artists"
REM COMPOSER ""
INDEX 00 08:18:06
INDEX 01 08:19:63
TRACK 05 AUDIO
TITLE "Primo Scala's Accordian Band - Serenade In The Night"
PERFORMER "Various Artists"
REM COMPOSER ""
INDEX 00 11:17:52
INDEX 01 11:19:34
TRACK 06 AUDIO
TITLE "Harry Leader Orch - Southpaw Special"
PERFORMER "Various Artists"
REM COMPOSER ""
INDEX 00 14:18:25
INDEX 01 14:20:07
TRACK 07 AUDIO
TITLE "New Grosvenor House Band - That's What Life Is Made Of"
PERFORMER "Various Artists"
REM COMPOSER ""
INDEX 00 17:01:00
INDEX 01 17:02:57
TRACK 08 AUDIO
TITLE "Skyrockets With Beryl Davis - October Mood"
PERFORMER "Various Artists"
REM COMPOSER ""
INDEX 00 20:03:10
INDEX 01 20:04:67
TRACK 09 AUDIO
TITLE "Billy Merrin & His Commanders With Sam Browne - We'll Make Hay While The Sun ..."
PERFORMER "Various Artists"
REM COMPOSER ""
INDEX 00 23:04:54
INDEX 01 23:06:36
TRACK 10 AUDIO
TITLE "Ronnie Munro With Jack Cooper - The Lambeth Walk"
PERFORMER "Various Artists"
REM COMPOSER ""
INDEX 00 25:58:02
INDEX 01 25:59:59
TRACK 11 AUDIO
TITLE "RAF Dance Orch With Sid Colin - It's Foolish But Fun"
PERFORMER "Various Artists"
REM COMPOSER ""
INDEX 00 29:11:26
INDEX 01 29:13:08
TRACK 12 AUDIO
TITLE "Kit Kat Band - Piccadilly Strutt"
PERFORMER "Various Artists"
REM COMPOSER ""
INDEX 00 31:57:29
INDEX 01 31:59:11
TRACK 13 AUDIO
TITLE "Scott Wood - I Only Have Eyes For You"
PERFORMER "Various Artists"
REM COMPOSER ""
INDEX 00 34:59:65
INDEX 01 35:01:47
TRACK 14 AUDIO
TITLE "Skyrockets - The Neighbours Complain"
PERFORMER "Various Artists"
REM COMPOSER ""
INDEX 00 37:55:12
INDEX 01 37:56:69
TRACK 15 AUDIO
TITLE "Carroll Gibbons & Savoy Orpheans - Better Think Twice"
PERFORMER "Various Artists"
REM COMPOSER ""
INDEX 00 40:52:65
INDEX 01 40:54:47
TRACK 16 AUDIO
TITLE "Maurice Winnich With Sam Costa & Judy Shirley - The Sweetest Music This Side ..."
PERFORMER "Various Artists"
REM COMPOSER ""
INDEX 00 44:00:59
INDEX 01 44:02:41
TRACK 17 AUDIO
TITLE "Louis Levy - Pennies From Heaven"
PERFORMER "Various Artists"
REM COMPOSER ""
INDEX 00 46:37:58
INDEX 01 46:39:40
TRACK 18 AUDIO
TITLE "Squadronaires With George Evans - It's Been A Long Long Time"
PERFORMER "Various Artists"
REM COMPOSER ""
INDEX 00 49:03:48
INDEX 01 49:05:30
TRACK 19 AUDIO
TITLE "RAF Dance Orch With Sid Colin - Whistler's Mother In Law"
PERFORMER "Various Artists"
REM COMPOSER ""
INDEX 00 52:09:03
INDEX 01 52:10:60
TRACK 20 AUDIO
TITLE "Six Swingers With Brian Lawrence - Rhythm Is Our Business"
PERFORMER "Various Artists"
REM COMPOSER ""
INDEX 00 55:28:38
INDEX 01 55:30:20
TRACK 21 AUDIO
TITLE "Percival Mackey's Band - The Half Of It Dearie Blues"
PERFORMER "Various Artists"
REM COMPOSER ""
INDEX 00 57:54:59
INDEX 01 57:56:41
TRACK 22 AUDIO
TITLE "Debroy Somers With Dan Donovan - You And The Night And The Music"
PERFORMER "Various Artists"
REM COMPOSER ""
INDEX 00 60:20:68
INDEX 01 60:22:50
[свернуть]

Лог проверки качества

AUDIOCHECKER v2.0 beta (build 457) - by Dester -
~~~~~~~~~~~~~~~~~~~~~~~~~~~~~~~~~~
-=== НЕ РЕДАКТИРУЙТЕ ЭТОТ ФАЙЛ! ===-

Путь: ...\2001 - The Best Of Swing [PGN CD 855]

1 -=- Various Artists - The Best Of Swing.flac -=- CDDA (100%)

133270724
[свернуть]

Спектр частот

[свернуть]

Скачать Various Artists - The Best Of Swing



password: sergych
[свернуть]

Контрольная сумма (хеш-сумма) архива

MD5: 202d3a72e63de7797b377eb048eb80cf
[свернуть]
My opinion of release: 10/10
__________________
TAIFUN.Wings of Soul

Вверх
2 пользователя(ей) сказали cпасибо:
johnsilver (04.05.2017), swint68 (04.05.2017)
Похожие темы
Тема Автор Раздел Ответов Последнее сообщение
Сборник Various Artists - Electro Swing III sergych Jazz и Blues 0 26.04.2017 17:52
Сборник Various Artists - Just Tell Me That You Want Me {A Tribute to Fleetwood Mac} sergych Blues Rock 0 27.05.2016 21:02
Сборник Various Artists - In Love... with Cole Porter sergych Jazz и Blues 0 03.03.2015 20:17
Релиз Highlord - The Death Of The Artists PUPOKIN Power Metal 0 02.01.2010 11:03
Альбом Carol Welsman - Swing Ladies, Swing! - A Tribute to Singers of the Swing Era PUPOKIN Jazz и Blues 0 10.11.2009 10:29


Метки
2001 , jazz , swing , the best of swing , various artists

Опции темы

Ваши права в разделе
Вы не можете создавать новые темы
Вы не можете отвечать в темах
Вы не можете прикреплять вложения
Вы не можете редактировать свои сообщения

Быстрый переход



Текущее время: 21:30. Часовой пояс GMT +3.
Powered by vBulletin® Version 3.8.10
Copyright ©2000 - 2018, vBulletin Solutions, Inc. Перевод: zCarot
© 2008 - 2018 Taifun With Song
Яндекс.Метрика