TAIFUN With Song
Вернуться   TAIFUN With Song > Music (обменник) > Rock > Pop Rock
Расширенный поиск
Pop Rock Поп-рок — жанр музыки, объединяющий элементы поп-музыки и рок-музыки. Песни характеризуются простой структурой, запоминающимися мелодиями, повторением музыкальных фраз (от попа), использованием в качестве основных инструментов электрогитар и ударных и агрессивным настроением (от рока).

А знаете ли Вы, что...
Как появился псевдоним украинской певицы Ани Лорак?
«Украинская певица Каролина Куек стала известна под псевдонимом Ани Лорак благодаря конкурсу «Утренняя звезда-95». Дело в том, что там уже была заявлена другая российская певица под именем Каролина, поэтому украинке пришлось выйти из положения, написав своё имя наоборот.»
 
Опции темы

  #1
Старый 03.05.2017, 19:02
sergych
Координатор
Досье
 
Аватар для sergych
Релиз Duran Duran - Notorious


1986 - Duran Duran - Notorious




Исполнитель/Artist: Duran Duran
Альбом/Album: Notorious
Год/Year: 1986
Жанр/Genre: Rock, funk rock, new wave, dance-rock
Страна/Country: Нидерланды
Рекорд-лейбл/Record label: EMI Records
Номер в каталоге/Catalogue #: 0777 746415 2 4
Формат/Format: Free Lossless Audio Codec (*.flac)
Качество/Quality: Lossless
Тип рипа/RIP Type: image+.cue
Продолжительность/Length: 00:46:58
Источник/Source: Собственный рип
Размер/Size: 346.7 MB

Сканы в комплекте

Треклист

01. Notorious [0:04:18.27]
02. American Science [0:04:43.10]
03. Skin Trade [0:05:57.03]
04. A Matter Of Feeling [0:05:56.65]
05. Hold Me [0:04:31.05]
06. Vertigo (Do The Demolition) [0:04:44.07]
07. So Misled [0:04:03.70]
08. ''Meet El Presidente'' [0:04:19.63]
09. Winter Marches On [0:03:25.52]
10. Proposition [0:04:57.38]
[свернуть]

youtube.com

[свернуть]

Исполнители/Performers

Duran Duran
Simon Le Bon - lead vocals
John Taylor - bass guitars
Nick Rhodes - keyboards

Additional Musicians
Steve Ferrone - drums
Andy Taylor, Nile Rodgers, Warren Cuccurullo - guitars
The Borneo Horns - horns
Jimmy Maelen - percussion
Brenda White-King, Cindy Mizelle, Curtis King, Tessa Niles - background vocals
[свернуть]

EAC лог

Exact Audio Copy V1.3 from 2. September 2016

EAC extraction logfile from 1. May 2017, 15:42

Duran Duran / Notorious

Used drive : PLEXTOR DVDR PX-716A Adapter: 1 ID: 0

Read mode : Secure
Utilize accurate stream : Yes
Defeat audio cache : Yes
Make use of C2 pointers : No

Read offset correction : 30
Overread into Lead-In and Lead-Out : No
Fill up missing offset samples with silence : Yes
Delete leading and trailing silent blocks : No
Null samples used in CRC calculations : Yes
Used interface : Native Win32 interface for Win NT & 2000

Used output format : User Defined Encoder
Selected bitrate : 1024 kBit/s
Quality : High
Add ID3 tag : No
Command line compressor : C:\Program Files (x86)\Exact Audio Copy\FLAC\FLAC.EXE
Additional command line options : -6 -V -T "ARTIST=%artist%" -T "TITLE=%title%" -T "ALBUM=%albumtitle%" -T "DATE=%year%" -T "TRACKNUMBER=%tracknr%" -T "GENRE=%genre%" -T "COMMENT=%comment%" -T "BAND=%albuminterpret%" -T "ALBUMARTIST=%albuminterpret%" -T "COMPOSER=%composer%" %haslyrics%--tag-from-file=LYRICS="%lyricsfile%"%haslyrics% -T "DISCNUMBER=%cdnumber%" -T "TOTALDISCS=%totalcds%" -T "TOTALTRACKS=%numtracks%" %hascover%--picture="%coverfile%"%hascover% %source% -o %dest%


TOC of the extracted CD

Track | Start | Length | Start sector | End sector
---------------------------------------------------------
1 | 0:00.33 | 4:18.27 | 33 | 19409
2 | 4:18.60 | 4:43.10 | 19410 | 40644
3 | 9:01.70 | 5:57.03 | 40645 | 67422
4 | 14:58.73 | 5:56.65 | 67423 | 94187
5 | 20:55.63 | 4:31.05 | 94188 | 114517
6 | 25:26.68 | 4:44.07 | 114518 | 135824
7 | 30:11.00 | 4:03.70 | 135825 | 154119
8 | 34:14.70 | 4:19.63 | 154120 | 173607
9 | 38:34.58 | 3:25.52 | 173608 | 189034
10 | 42:00.35 | 4:57.38 | 189035 | 211347


Range status and errors

Selected range

Filename C:\mm\Duran Duran\1986 - Notorious [0777 746415 2 4]\Duran Duran - Notorious.wav

Peak level 100.0 %
Extraction speed 12.2 X
Range quality 100.0 %
Test CRC 163DEC4D
Copy CRC 163DEC4D
Copy OK

No errors occurred


AccurateRip summary

Track 1 accurately ripped (confidence 28) [7479F8C6] (AR v2)
Track 2 accurately ripped (confidence 29) [AD8D6407] (AR v2)
Track 3 accurately ripped (confidence 28) [B988F511] (AR v2)
Track 4 accurately ripped (confidence 29) [2844D2AD] (AR v2)
Track 5 accurately ripped (confidence 29) [024674D3] (AR v2)
Track 6 accurately ripped (confidence 29) [800A2595] (AR v2)
Track 7 accurately ripped (confidence 29) [7CDA781C] (AR v2)
Track 8 accurately ripped (confidence 29) [160FC18B] (AR v2)
Track 9 accurately ripped (confidence 29) [1ADBED17] (AR v2)
Track 10 accurately ripped (confidence 29) [9A074AAD] (AR v2)

All tracks accurately ripped

End of status report

---- CUETools DB Plugin V2.1.6

[CTDB TOCID: iq_oRGZGw4CWw6mOMrDYoB3jHiE-] found
Submit result: iq_oRGZGw4CWw6mOMrDYoB3jHiE- has been confirmed
Track | CTDB Status
1 | (157/157) Accurately ripped
2 | (157/157) Accurately ripped
3 | (154/157) Accurately ripped, or (1/157) differs in 1477 samples @00:00:31-00:00:33
4 | (156/157) Accurately ripped, or (1/157) differs in 1729 samples @00:00:31-00:00:33
5 | (157/157) Accurately ripped
6 | (157/157) Accurately ripped
7 | (154/157) Accurately ripped, or (1/157) differs in 2164 samples @00:00:31-00:00:33
8 | (156/157) Accurately ripped
9 | (156/157) Accurately ripped
10 | (156/157) Accurately ripped
[свернуть]

Файл CUE

REM GENRE Pop
REM DATE 1986
REM DISCID 6F0B010A
REM COMMENT "ExactAudioCopy v1.3"
PERFORMER "Duran Duran"
TITLE "Notorious"
REM COMPOSER ""
FILE "Duran Duran - Notorious.flac" WAVE
TRACK 01 AUDIO
TITLE "Notorious"
PERFORMER "Duran Duran"
REM COMPOSER ""
INDEX 00 00:00:00
INDEX 01 00:00:33
TRACK 02 AUDIO
TITLE "American Science"
PERFORMER "Duran Duran"
REM COMPOSER ""
INDEX 00 04:18:58
INDEX 01 04:18:60
TRACK 03 AUDIO
TITLE "Skin Trade"
PERFORMER "Duran Duran"
REM COMPOSER ""
INDEX 01 09:01:70
TRACK 04 AUDIO
TITLE "A Matter Of Feeling"
PERFORMER "Duran Duran"
REM COMPOSER ""
INDEX 01 14:58:73
TRACK 05 AUDIO
TITLE "Hold Me"
PERFORMER "Duran Duran"
REM COMPOSER ""
INDEX 00 20:55:53
INDEX 01 20:55:63
TRACK 06 AUDIO
TITLE "Vertigo (Do The Demolition)"
PERFORMER "Duran Duran"
REM COMPOSER ""
INDEX 00 25:26:48
INDEX 01 25:26:68
TRACK 07 AUDIO
TITLE "So Misled"
PERFORMER "Duran Duran"
REM COMPOSER ""
INDEX 01 30:11:00
TRACK 08 AUDIO
TITLE "''Meet El Presidente''"
PERFORMER "Duran Duran"
REM COMPOSER ""
INDEX 01 34:14:70
TRACK 09 AUDIO
TITLE "Winter Marches On"
PERFORMER "Duran Duran"
REM COMPOSER ""
INDEX 00 38:33:33
INDEX 01 38:34:58
TRACK 10 AUDIO
TITLE "Proposition"
PERFORMER "Duran Duran"
REM COMPOSER ""
INDEX 00 41:59:35
INDEX 01 42:00:35
[свернуть]

Лог проверки качества

AUDIOCHECKER v2.0 beta (build 457) - by Dester - [Ссылки могут видеть только зарегистрированные пользователи. ]
~~~~~~~~~~~~~~~~~~~~~~~~~~~~~~~~~~
-=== НЕ РЕДАКТИРУЙТЕ ЭТОТ ФАЙЛ! ===-

Путь: ...\1986 - Notorious [0777 746415 2 4]

1 -=- Duran Duran - Notorious.flac -=- MPEG (95%)

266368516
[свернуть]

Спектр частот

[свернуть]

Скачать Duran Duran - Notorious

[Ссылки могут видеть только зарегистрированные пользователи. ]

password: sergych
[свернуть]

Контрольная сумма (хеш-сумма) архива

MD5: e071944298b3ceb67ef1829b9ebab19e
[свернуть]
My opinion of release: 10/10
__________________
TAIFUN.Wings of Soul

Вверх
2 пользователя(ей) сказали cпасибо:
johnsilver (03.05.2017), swint68 (03.05.2017)
Похожие темы
Тема Автор Раздел Ответов Последнее сообщение
Live Duran Duran - Arena sergych Pop Rock 0 02.05.2014 22:10
Релиз Duran Duran - All You Need Is Now PUPOKIN Pop Rock 0 12.12.2010 10:58
Сборник Duran Duran - Greatest Hits PUPOKIN Pop Rock 0 25.11.2009 10:19
Duran Duran споют на Дворцовой площади Петербурга PUPOKIN Новости в мире музыки 0 07.04.2009 17:14
Duran Duran - Red Carpet Massacre PUPOKIN Pop Rock 0 13.10.2008 17:23


Метки
1986 , dance-rock , duran duran , funk rock , new wave , notorious , rock

Опции темы

Ваши права в разделе
Вы не можете создавать новые темы
Вы не можете отвечать в темах
Вы не можете прикреплять вложения
Вы не можете редактировать свои сообщения

Быстрый переход



Текущее время: 21:20. Часовой пояс GMT +3.
Powered by vBulletin® Version 3.8.7
Copyright ©2000 - 2017, vBulletin Solutions, Inc. Перевод: zCarot
© 2008 - 2017 Taifun With Song
Яндекс.Метрика