TAIFUN With Song
Вернуться   TAIFUN With Song > Music (обменник) > Rock
Расширенный поиск
А знаете ли Вы, что...
Почему Майкл Джексон получал половину доходов от продаж песен Beatles?
«В 1984 году на аукционе продавались издательские права на песни Beatles. Его выиграл Майкл Джексон, заплатив почти 50 миллионов долларов — больше, чем предлагал сам Пол Маккартни. С этого времени Джексон получал половину доходов от продаж Beatles (другую половину получали авторы песен, главным образом Маккартни). В 1995 году компания Sony выкупила у Джексона половину его прав, так что в последнее время он получал только четверть доходов.»
 
Опции темы

  #1
Старый 02.05.2017, 19:16
sergych
Координатор
Досье
 
Аватар для sergych
Релиз Bonnie Tyler - Faster Than The Speed Of Night


1983(2008) - Bonnie Tyler - Faster Than The Speed Of Night {Daily Mail}




Исполнитель/Artist: Bonnie Tyler
Альбом/Album: Faster Than The Speed Of Night {Daily Mail}
Год/Year: 1983
Ремастеринг/Remaster: 2008
Жанр/Genre: Soft rock, Wagnerian rock, Hard rock
Страна/Country: Великобритания
Рекорд-лейбл/Record label: Sony BMG Music
Номер в каталоге/Catalogue #: 5 060087 870052_DMBONNIE01
Формат/Format: Free Lossless Audio Codec (*.flac)
Качество/Quality: Lossless
Тип рипа/RIP Type: image+.cue
Продолжительность/Length: 00:43:14
Источник/Source: Собственный рип
Размер/Size: 292.2 MB

Сканы в комплекте

Треклист

01. Have You Ever Seen The Rain [0:04:10.10]
02. Faster Than The Speed Of Night [0:06:45.57]
03. Getting So Exciting [0:03:31.73]
04. Total Eclipse Of The Heart [0:07:01.67]
05. It's A Jungle Out There [0:04:39.10]
06. Goin' Through The Motions [0:04:09.43]
07. Tears [0:03:50.57]
08. Take Me Back [0:05:23.08]
09. Straight From The Heart [0:03:42.05]
[свернуть]

youtube.com

[свернуть]

Исполнители/Performers

The band
Bonnie Tyler: vocals
Roy Bittan: piano, organ on track 8
Larry Fast: synthesizers
Rick Derringer: guitars
Steve Buslowe: bass
Max Weinberg: drums
Jimmy Maelen: percussion
Eric Troyer: backing vocals
Rory Dodd: backing vocals, vocal on track 4

"It's a Jungle Out There"
Paul Shaffer: organ (also organ on track 7)
Hiram Bullock: guitars
Will Lee: bass
Steve Jordan: drums
Jimmy Maelen: percussion

Additional musicians
Dave LeBolt: additional synthesizer on track 1
Steve Margoshes: all keyboards on track 2
Holly Sherwood: backing vocals & wailing on track 2
Martin Briley: additional guitars on track 2
Stephanie Black, Erika Katz, Brian Pew, Edward Skylar, Tristine Skylar, David Varga: children's chorus on track 6
Frankie Miller: male vocal on track 7
[свернуть]

EAC лог

Exact Audio Copy V1.3 from 2. September 2016

EAC extraction logfile from 1. May 2017, 0:30

Bonnie Tyler / Faster Than The Speed Of Night {Daily Mail}

Used drive : PLEXTOR DVDR PX-716A Adapter: 1 ID: 0

Read mode : Secure
Utilize accurate stream : Yes
Defeat audio cache : Yes
Make use of C2 pointers : No

Read offset correction : 30
Overread into Lead-In and Lead-Out : No
Fill up missing offset samples with silence : Yes
Delete leading and trailing silent blocks : No
Null samples used in CRC calculations : Yes
Used interface : Native Win32 interface for Win NT & 2000

Used output format : User Defined Encoder
Selected bitrate : 1024 kBit/s
Quality : High
Add ID3 tag : No
Command line compressor : C:\Program Files (x86)\Exact Audio Copy\FLAC\FLAC.EXE
Additional command line options : -6 -V -T "ARTIST=%artist%" -T "TITLE=%title%" -T "ALBUM=%albumtitle%" -T "DATE=%year%" -T "TRACKNUMBER=%tracknr%" -T "GENRE=%genre%" -T "COMMENT=%comment%" -T "BAND=%albuminterpret%" -T "ALBUMARTIST=%albuminterpret%" -T "COMPOSER=%composer%" %haslyrics%--tag-from-file=LYRICS="%lyricsfile%"%haslyrics% -T "DISCNUMBER=%cdnumber%" -T "TOTALDISCS=%totalcds%" -T "TOTALTRACKS=%numtracks%" %hascover%--picture="%coverfile%"%hascover% %source% -o %dest%


TOC of the extracted CD

Track | Start | Length | Start sector | End sector
---------------------------------------------------------
1 | 0:00.00 | 4:10.10 | 0 | 18759
2 | 4:10.10 | 6:45.57 | 18760 | 49191
3 | 10:55.67 | 3:31.73 | 49192 | 65089
4 | 14:27.65 | 7:01.67 | 65090 | 96731
5 | 21:29.57 | 4:39.10 | 96732 | 117666
6 | 26:08.67 | 4:09.43 | 117667 | 136384
7 | 30:18.35 | 3:50.57 | 136385 | 153691
8 | 34:09.17 | 5:23.08 | 153692 | 177924
9 | 39:32.25 | 3:42.05 | 177925 | 194579


Range status and errors

Selected range

Filename C:\mm\Bonnie Tyler\2008 - Faster Than The Speed Of Night {Daily Mail} [5 060087 870052]\Bonnie Tyler - Faster Than The Speed Of Night {Daily Mail}.wav

Peak level 100.0 %
Extraction speed 3.7 X
Range quality 100.0 %
Test CRC C2AD602D
Copy CRC C2AD602D
Copy OK

No errors occurred


AccurateRip summary

Track 1 accurately ripped (confidence 17) [3A0EDF33] (AR v2)
Track 2 accurately ripped (confidence 17) [B018E4BB] (AR v2)
Track 3 accurately ripped (confidence 17) [6FCBA65E] (AR v2)
Track 4 accurately ripped (confidence 17) [BD16F85B] (AR v2)
Track 5 accurately ripped (confidence 17) [4A0C5478] (AR v2)
Track 6 accurately ripped (confidence 17) [D71F3472] (AR v2)
Track 7 accurately ripped (confidence 17) [230936D1] (AR v2)
Track 8 accurately ripped (confidence 17) [D51C077D] (AR v2)
Track 9 accurately ripped (confidence 17) [FDFDE474] (AR v2)

All tracks accurately ripped

End of status report

---- CUETools DB Plugin V2.1.6

[CTDB TOCID: PIIZ2_dcMN9svAcS18Kvo36UZCQ-] found
Submit result: PIIZ2_dcMN9svAcS18Kvo36UZCQ- has been confirmed
Track | CTDB Status
1 | (206/206) Accurately ripped
2 | (204/206) Accurately ripped
3 | (206/206) Accurately ripped
4 | (206/206) Accurately ripped
5 | (205/206) Accurately ripped
6 | (206/206) Accurately ripped
7 | (197/206) Accurately ripped, or (9/206) differs in 1361 samples @01:39:57-01:39:59
8 | (206/206) Accurately ripped
9 | (204/206) Accurately ripped
[свернуть]

Файл CUE

TITLE "Faster Than The Speed Of Night {Daily Mail}"
PERFORMER "Bonnie Tyler"
REM GENRE "Rock"
REM DATE "2008"
REM DISCNUMBER "1/1"
FILE "Bonnie Tyler - Faster Than The Speed Of Night {Daily Mail}.mp3" MP3
TRACK 01 AUDIO
INDEX 01 00:00:00
TITLE "Have You Ever Seen The Rain"
REM COMMENT "ExactAudioCopy v1.3"
REM COMPOSER ""
TRACK 02 AUDIO
INDEX 01 04:10:09
TITLE "Faster Than The Speed Of Night"
REM COMMENT "ExactAudioCopy v1.3"
REM COMPOSER ""
TRACK 03 AUDIO
INDEX 01 10:55:66
TITLE "Getting So Exciting"
REM COMMENT "ExactAudioCopy v1.3"
REM COMPOSER ""
TRACK 04 AUDIO
INDEX 01 14:27:65
TITLE "Total Eclipse Of The Heart"
REM COMMENT "ExactAudioCopy v1.3"
REM COMPOSER ""
TRACK 05 AUDIO
INDEX 01 21:29:56
TITLE "It's A Jungle Out There"
REM COMMENT "ExactAudioCopy v1.3"
REM COMPOSER ""
TRACK 06 AUDIO
INDEX 01 26:08:67
TITLE "Goin' Through The Motions"
REM COMMENT "ExactAudioCopy v1.3"
REM COMPOSER ""
TRACK 07 AUDIO
INDEX 01 30:18:35
TITLE "Tears"
REM COMMENT "ExactAudioCopy v1.3"
REM COMPOSER ""
TRACK 08 AUDIO
INDEX 01 34:09:17
TITLE "Take Me Back"
REM COMMENT "ExactAudioCopy v1.3"
REM COMPOSER ""
TRACK 09 AUDIO
INDEX 01 39:32:25
TITLE "Straight From The Heart"
REM COMMENT "ExactAudioCopy v1.3"
REM COMPOSER ""
[свернуть]

Лог проверки качества

AUDIOCHECKER v2.0 beta (build 457) - by Dester -
~~~~~~~~~~~~~~~~~~~~~~~~~~~~~~~~~~
-=== НЕ РЕДАКТИРУЙТЕ ЭТОТ ФАЙЛ! ===-

Путь: ...\2008 - Faster Than The Speed Of Night {Daily Mail} [5 060087 870052]

1 -=- Bonnie Tyler - Faster Than The Speed Of Night {Daily Mail}.flac -=- MPEG (95%)

163057620
[свернуть]

Спектр частот

[свернуть]

Скачать Bonnie Tyler - Faster Than The Speed Of Night



password: sergych
[свернуть]

Контрольная сумма (хеш-сумма) архива

MD5: 84cbbfce0380fffb5e83628620fe4316
[свернуть]
My opinion of release: 10/10

Release info RInfo

Вкладыш к журналу Daily Mail. Не для продажи отдельно от журнала
__________________
TAIFUN.Wings of Soul

Вверх
2 пользователя(ей) сказали cпасибо:
johnsilver (03.05.2017), swint68 (02.05.2017)
  #2
Старый 02.05.2017, 21:04
swint68
Меломан
Досье
 
Аватар для swint68
По умолчанию Re: Bonnie Tyler - Faster Than The Speed Of Night

Спасибо!
По мне так лучший её альбом.

Вверх
Пользователь сказал cпасибо:
sergych (03.05.2017)
  #3
Старый 03.05.2017, 09:44
sergych
Координатор
Досье
 
Аватар для sergych
По умолчанию Re: Bonnie Tyler - Faster Than The Speed Of Night

Цитата: Сообщение от swint68 Посмотреть сообщение
По мне так лучший её альбом.

Соглашусь, причём практически весь слушается с удовольствием
__________________
TAIFUN.Wings of Soul

Вверх
Пользователь сказал cпасибо:
swint68 (03.05.2017)
Похожие темы
Тема Автор Раздел Ответов Последнее сообщение
Альбом Bonnie Tyler - Wings sergych Pop Rock 0 07.03.2015 10:37
Альбом Bonnie Tyler - Free Spirit PUPOKIN Pop Rock 0 23.03.2009 11:42
Альбом Bonnie Tyler - Hide Your Heart PUPOKIN Pop Rock 0 17.03.2009 11:13
Альбом Bonnie Tyler - Diamond Cut PUPOKIN Pop Rock 0 15.03.2009 14:26
Альбом Bonnie Tyler - Bitterblue PUPOKIN Pop Rock 0 18.01.2009 20:35


Метки
1983 , bonnie tyler , daily mail , faster than the speed of night , hard rock , soft rock , wagnerian rock

Опции темы

Ваши права в разделе
Вы не можете создавать новые темы
Вы не можете отвечать в темах
Вы не можете прикреплять вложения
Вы не можете редактировать свои сообщения

Быстрый переход



Текущее время: 01:28. Часовой пояс GMT +3.
Powered by vBulletin® Version 3.8.7
Copyright ©2000 - 2017, vBulletin Solutions, Inc. Перевод: zCarot
© 2008 - 2017 Taifun With Song
Яндекс.Метрика