TAIFUN With Song
R&B Ссылки на музыку в этом стиле

А знаете ли Вы, что...
Кто написал песню «Во поле берёза стояла»?
«Многие источники утверждают, что песню «Во поле берёза стояла» написал татарский поэт Нигмат Ибрагимов. Однако эта песня всё-таки является русской народной.»
 
Опции темы

  #1
Старый 28.04.2017, 19:54
sergych
Координатор
Досье
 
Аватар для sergych
Релиз Janet Jackson - Unbreakable


2015 - Janet Jackson - Unbreakable {Target Edition}




Исполнитель/Artist: Janet Jackson
Альбом/Album: Unbreakable {Target Edition}
Год/Year: 2015
Жанр/Genre: Pop, R&B, dance pop, hip hop, funk
Страна/Country: Соединённые Штаты
Рекорд-лейбл/Record label: Black Doll
Номер в каталоге/Catalogue #: 538164812
Формат/Format: Free Lossless Audio Codec (*.flac)
Качество/Quality: Lossless
Тип рипа/RIP Type: image+.cue
Продолжительность/Length: 01:11:58
Источник/Source: Собственный рип
Размер/Size: 633.4 MB

Сканы в комплекте

Треклист

01. Unbreakable [0:03:38.25]
02. Janet Jackson feat. Missy Eliott / BurnItUp! [0:04:09.71]
03. Dammn Baby [0:03:55.37]
04. The Great Forever [0:04:18.24]
05. Shoulda Known Better [0:04:45.15]
06. After You Fall [0:04:48.00]
07. Broken Hearts Heal [0:03:42.70]
08. Night [0:04:14.10]
09. Janet Jackson feat. J. Cole / No Sleeep [0:04:20.52]
10. Dream Maker / Euphoria [0:02:46.17]
11. 2 B Loved [0:02:55.61]
12. Take Me Away [0:04:18.13]
13. Promise [0:00:57.59]
14. Lessons Learned [0:04:23.74]
15. Black Eagle [0:03:17.61]
16. Well Traveled [0:04:18.15]
17. Gon' B Alright [0:03:54.72]

Bonus tracks:
18. Promise Of You [0:04:30.22]
19. Love U 4 Life [0:02:41.48]
[свернуть]

youtube.com

[свернуть]

EAC лог

Exact Audio Copy V1.3 from 2. September 2016

EAC extraction logfile from 10. April 2017, 21:17

Janet Jackson / Unbreakable

Used drive : PLEXTOR DVDR PX-716A Adapter: 1 ID: 0

Read mode : Secure
Utilize accurate stream : Yes
Defeat audio cache : Yes
Make use of C2 pointers : No

Read offset correction : 30
Overread into Lead-In and Lead-Out : No
Fill up missing offset samples with silence : Yes
Delete leading and trailing silent blocks : No
Null samples used in CRC calculations : Yes
Used interface : Native Win32 interface for Win NT & 2000

Used output format : User Defined Encoder
Selected bitrate : 1024 kBit/s
Quality : High
Add ID3 tag : No
Command line compressor : C:\Program Files (x86)\Exact Audio Copy\FLAC\FLAC.EXE
Additional command line options : -6 -V -T "ARTIST=%artist%" -T "TITLE=%title%" -T "ALBUM=%albumtitle%" -T "DATE=%year%" -T "TRACKNUMBER=%tracknr%" -T "GENRE=%genre%" -T "COMMENT=%comment%" -T "BAND=%albuminterpret%" -T "ALBUMARTIST=%albuminterpret%" -T "COMPOSER=%composer%" %haslyrics%--tag-from-file=LYRICS="%lyricsfile%"%haslyrics% -T "DISCNUMBER=%cdnumber%" -T "TOTALDISCS=%totalcds%" -T "TOTALTRACKS=%numtracks%" %hascover%--picture="%coverfile%"%hascover% %source% -o %dest%


TOC of the extracted CD

Track | Start | Length | Start sector | End sector
---------------------------------------------------------
1 | 0:00.00 | 3:38.25 | 0 | 16374
2 | 3:38.25 | 4:09.71 | 16375 | 35120
3 | 7:48.21 | 3:55.37 | 35121 | 52782
4 | 11:43.58 | 4:18.24 | 52783 | 72156
5 | 16:02.07 | 4:45.15 | 72157 | 93546
6 | 20:47.22 | 4:48.00 | 93547 | 115146
7 | 25:35.22 | 3:42.70 | 115147 | 131866
8 | 29:18.17 | 4:14.10 | 131867 | 150926
9 | 33:32.27 | 4:20.52 | 150927 | 170478
10 | 37:53.04 | 2:46.17 | 170479 | 182945
11 | 40:39.21 | 2:55.61 | 182946 | 196131
12 | 43:35.07 | 4:18.13 | 196132 | 215494
13 | 47:53.20 | 0:57.59 | 215495 | 219828
14 | 48:51.04 | 4:23.74 | 219829 | 239627
15 | 53:15.03 | 3:17.61 | 239628 | 254463
16 | 56:32.64 | 4:18.15 | 254464 | 273828
17 | 60:51.04 | 3:54.72 | 273829 | 291450
18 | 64:46.01 | 4:30.22 | 291451 | 311722
19 | 69:16.23 | 2:41.48 | 311723 | 323845


Range status and errors

Selected range

Filename C:\mm\Janet Jackson\2015 - Unbreakable [538164812]\Janet Jackson - Unbreakable.wav

Peak level 99.8 %
Extraction speed 3.8 X
Range quality 100.0 %
Test CRC DB72A323
Copy CRC DB72A323
Copy OK

No errors occurred


AccurateRip summary

Track 1 accurately ripped (confidence 12) [9C67272D] (AR v2)
Track 2 accurately ripped (confidence 12) [C0F4CDF1] (AR v2)
Track 3 accurately ripped (confidence 12) [437B98A9] (AR v2)
Track 4 accurately ripped (confidence 12) [4D195927] (AR v2)
Track 5 accurately ripped (confidence 12) [500527CD] (AR v2)
Track 6 accurately ripped (confidence 12) [4433F279] (AR v2)
Track 7 accurately ripped (confidence 12) [86AFF743] (AR v2)
Track 8 accurately ripped (confidence 12) [BABC0A84] (AR v2)
Track 9 accurately ripped (confidence 12) [6566DC59] (AR v2)
Track 10 accurately ripped (confidence 12) [EFF6CE01] (AR v2)
Track 11 accurately ripped (confidence 12) [516A2E20] (AR v2)
Track 12 accurately ripped (confidence 12) [C6F4DF46] (AR v2)
Track 13 accurately ripped (confidence 12) [B4624676] (AR v2)
Track 14 accurately ripped (confidence 12) [7EEBDDFC] (AR v2)
Track 15 accurately ripped (confidence 12) [6DF78C11] (AR v2)
Track 16 accurately ripped (confidence 12) [ED3EBFCA] (AR v2)
Track 17 accurately ripped (confidence 12) [1FDD601F] (AR v2)
Track 18 accurately ripped (confidence 12) [F5ED2872] (AR v2)
Track 19 accurately ripped (confidence 11) [84A85B1C] (AR v2)

All tracks accurately ripped

End of status report

---- CUETools DB Plugin V2.1.6

[CTDB TOCID: fEjV9OJBn8Lfixgcd_hr3Ao.EvQ-] found
Submit result: fEjV9OJBn8Lfixgcd_hr3Ao.EvQ- has been confirmed
Track | CTDB Status
1 | (40/40) Accurately ripped
2 | (40/40) Accurately ripped
3 | (40/40) Accurately ripped
4 | (40/40) Accurately ripped
5 | (40/40) Accurately ripped
6 | (40/40) Accurately ripped
7 | (40/40) Accurately ripped
8 | (40/40) Accurately ripped
9 | (40/40) Accurately ripped
10 | (40/40) Accurately ripped
11 | (39/40) Accurately ripped
12 | (40/40) Accurately ripped
13 | (40/40) Accurately ripped
14 | (39/40) Accurately ripped
15 | (40/40) Accurately ripped
16 | (40/40) Accurately ripped
17 | (40/40) Accurately ripped
18 | (38/40) Accurately ripped
19 | (37/40) Accurately ripped
[свернуть]

Файл CUE

REM GENRE R&B/Soul
REM DATE 2015
REM DISCID 1D10DD13
REM COMMENT "ExactAudioCopy v1.3"
PERFORMER "Janet Jackson"
TITLE "Unbreakable"
REM COMPOSER ""
FILE "Janet Jackson - Unbreakable.flac" WAVE
TRACK 01 AUDIO
TITLE "Unbreakable"
PERFORMER "Janet Jackson"
REM COMPOSER ""
INDEX 01 00:00:00
TRACK 02 AUDIO
TITLE "BurnItUp!"
PERFORMER "Janet Jackson feat. Missy Eliott"
REM COMPOSER ""
INDEX 01 03:38:25
TRACK 03 AUDIO
TITLE "Dammn Baby"
PERFORMER "Janet Jackson"
REM COMPOSER ""
INDEX 01 07:48:21
TRACK 04 AUDIO
TITLE "The Great Forever"
PERFORMER "Janet Jackson"
REM COMPOSER ""
INDEX 01 11:43:58
TRACK 05 AUDIO
TITLE "Shoulda Known Better"
PERFORMER "Janet Jackson"
REM COMPOSER ""
INDEX 01 16:02:07
TRACK 06 AUDIO
TITLE "After You Fall"
PERFORMER "Janet Jackson"
REM COMPOSER ""
INDEX 01 20:47:22
TRACK 07 AUDIO
TITLE "Broken Hearts Heal"
PERFORMER "Janet Jackson"
REM COMPOSER ""
INDEX 01 25:35:22
TRACK 08 AUDIO
TITLE "Night"
PERFORMER "Janet Jackson"
REM COMPOSER ""
INDEX 01 29:18:17
TRACK 09 AUDIO
TITLE "No Sleeep"
PERFORMER "Janet Jackson feat. J. Cole"
REM COMPOSER ""
INDEX 01 33:32:27
TRACK 10 AUDIO
TITLE "Dream Maker / Euphoria"
PERFORMER "Janet Jackson"
REM COMPOSER ""
INDEX 01 37:53:04
TRACK 11 AUDIO
TITLE "2 B Loved"
PERFORMER "Janet Jackson"
REM COMPOSER ""
INDEX 01 40:39:21
TRACK 12 AUDIO
TITLE "Take Me Away"
PERFORMER "Janet Jackson"
REM COMPOSER ""
INDEX 01 43:35:07
TRACK 13 AUDIO
TITLE "Promise"
PERFORMER "Janet Jackson"
REM COMPOSER ""
INDEX 01 47:53:20
TRACK 14 AUDIO
TITLE "Lessons Learned"
PERFORMER "Janet Jackson"
REM COMPOSER ""
INDEX 01 48:51:04
TRACK 15 AUDIO
TITLE "Black Eagle"
PERFORMER "Janet Jackson"
REM COMPOSER ""
INDEX 01 53:15:03
TRACK 16 AUDIO
TITLE "Well Traveled"
PERFORMER "Janet Jackson"
REM COMPOSER ""
INDEX 01 56:32:64
TRACK 17 AUDIO
TITLE "Gon' B Alright"
PERFORMER "Janet Jackson"
REM COMPOSER ""
INDEX 01 60:51:04
TRACK 18 AUDIO
TITLE "Promise Of You"
PERFORMER "Janet Jackson"
REM COMPOSER ""
INDEX 00 64:45:27
INDEX 01 64:46:01
TRACK 19 AUDIO
TITLE "Love U 4 Life"
PERFORMER "Janet Jackson"
REM COMPOSER ""
INDEX 01 69:16:23
[свернуть]

Лог проверки качества

AUDIOCHECKER v2.0 beta (build 457) - by Dester -
~~~~~~~~~~~~~~~~~~~~~~~~~~~~~~~~~~
-=== НЕ РЕДАКТИРУЙТЕ ЭТОТ ФАЙЛ! ===-

Путь: ...\2015 - Unbreakable [538164812]

1 -=- Janet Jackson - Unbreakable.flac -=- CDDA (100%)

252085956
[свернуть]

Спектр частот

[свернуть]

Скачать Janet Jackson - Unbreakable



password: sergych
[свернуть]

Контрольная сумма (хеш-сумма) архива

MD5: ab93691a5e7f2c475ce5ba285f825bfb
[свернуть]
My opinion of release: 8/10
__________________
TAIFUN.Wings of Soul

Вверх
2 пользователя(ей) сказали cпасибо:
johnsilver (28.04.2017), swint68 (28.04.2017)
  #2
Старый 28.04.2017, 20:15
swint68
Меломан
Досье
 
Аватар для swint68
По умолчанию Re: Janet Jackson - Unbreakable

Так шикарно же!
Спасибо большое!


Последний раз редактировалось swint68, 29.04.2017 в 07:42.
Вверх
Пользователь сказал cпасибо:
sergych (28.04.2017)
Похожие темы
Тема Автор Раздел Ответов Последнее сообщение
Альбом Janet Jackson - Janet sergych Зарубежная Поп-Музыка 2 16.04.2015 10:12
Альбом Janet Jackson - All For You sergych Зарубежная Поп-Музыка 0 17.06.2010 02:13
Альбом Janet Jackson - Janet. Remixed sergych Зарубежная Поп-Музыка 0 15.06.2010 21:14
Альбом Janet Jackson - Janet Jackson sergych Зарубежная Поп-Музыка 0 15.06.2010 12:05
Релиз Janet Jackson - I.C.O.N. PUPOKIN Зарубежная Поп-Музыка 0 04.01.2009 10:53


Метки
2015 , dance pop , funk , hip hop , janet jackson , pop , r&b , unbreakable {target edition}

Опции темы

Ваши права в разделе
Вы не можете создавать новые темы
Вы не можете отвечать в темах
Вы не можете прикреплять вложения
Вы не можете редактировать свои сообщения

Быстрый переход



Текущее время: 01:10. Часовой пояс GMT +3.
Powered by vBulletin® Version 3.8.7
Copyright ©2000 - 2017, vBulletin Solutions, Inc. Перевод: zCarot
© 2008 - 2017 Taifun With Song
Яндекс.Метрика