TAIFUN With Song
Вернуться   TAIFUN With Song > Music (обменник) > Другие направления музыки > Jazz и Blues
Расширенный поиск
Jazz и Blues Гибкая ритмика, импровизационное начало, гармонии и мелодии - все это Jazz. Blues - жизнеутверждающая музыка, рожденная из душевной боли

А знаете ли Вы, что...
Почему в радуге выделяют 7 цветов?
«Хотя многоцветный спектр радуги непрерывен, по традиции в нём выделяют 7 цветов. Считают, что первым выбрал это число Исаак Ньютон. Причём первоначально он различал только пять цветов — красный, жёлтый, зелёный, голубой и фиолетовый, о чём и написал в своей «Оптике». Но впоследствии, стремясь создать соответствие между числом цветов спектра и числом основных тонов музыкальной гаммы, Ньютон добавил ещё два цвета.»
 
Опции темы

  #1
Старый 20.04.2017, 20:04
sergych
Координатор
Досье
 
Аватар для sergych
Релиз Cassandra Wilson - Closer To You: The Pop Side


2009 - Cassandra Wilson - Closer To You: The Pop Side




Исполнитель/Artist: Cassandra Wilson
Альбом/Album: Closer To You: The Pop Side
Год/Year: 2009
Жанр/Genre: Jazz, Contemporary Jazz
Страна/Country: Аргентина
Рекорд-лейбл/Record label: Blue Note
Номер в каталоге/Catalogue #: 50999 6960872 8
Формат/Format: Free Lossless Audio Codec (*.flac)
Качество/Quality: Lossless
Тип рипа/RIP Type: image+.cue
Продолжительность/Length: 00:57:56
Источник/Source: Собственный рип
Размер/Size: 408.3 MB

Сканы в комплекте

Треклист

01. Love Is Blindness (Bono, Adam Clayton, The Edge, Larry Mullen, Jr.) [0:04:54.33]
02. Time After Time (Rob Hyman, Cyndi Lauper) [0:04:07.50]
03. Fragile (Sting) [0:04:36.57]
04. Closer To You (Jakob Dylan) [0:05:48.44]
05. Last Train To Clarksville (Tommy Boyce, Bobby Hart) [0:05:16.74]
06. The Weight (Robbie Robertson) [0:06:05.05]
07. Tupelo Honey (Van Morrison) [0:05:37.66]
08. Harvest Moon (Neil Young) [0:05:02.11]
09. I Can't Stand The Rain (Don Bryant, Bernard Miller, Ann Peebles) [0:05:28.03]
10. Lay, Lady, Lay (Bob Dylan) [0:05:08.50]
11. Wichita Lineman (Jimmy Webb) [0:05:49.21]
[свернуть]

youtube.com

[свернуть]

EAC лог

Exact Audio Copy V1.3 from 2. September 2016

EAC extraction logfile from 14. April 2017, 7:52

Cassandra Wilson / Closer To You: The Pop Side

Used drive : PLEXTOR DVDR PX-716A Adapter: 1 ID: 0

Read mode : Secure
Utilize accurate stream : Yes
Defeat audio cache : Yes
Make use of C2 pointers : No

Read offset correction : 30
Overread into Lead-In and Lead-Out : No
Fill up missing offset samples with silence : Yes
Delete leading and trailing silent blocks : No
Null samples used in CRC calculations : Yes
Used interface : Native Win32 interface for Win NT & 2000

Used output format : User Defined Encoder
Selected bitrate : 1024 kBit/s
Quality : High
Add ID3 tag : No
Command line compressor : C:\Program Files (x86)\Exact Audio Copy\FLAC\FLAC.EXE
Additional command line options : -6 -V -T "ARTIST=%artist%" -T "TITLE=%title%" -T "ALBUM=%albumtitle%" -T "DATE=%year%" -T "TRACKNUMBER=%tracknr%" -T "GENRE=%genre%" -T "COMMENT=%comment%" -T "BAND=%albuminterpret%" -T "ALBUMARTIST=%albuminterpret%" -T "COMPOSER=%composer%" %haslyrics%--tag-from-file=LYRICS="%lyricsfile%"%haslyrics% -T "DISCNUMBER=%cdnumber%" -T "TOTALDISCS=%totalcds%" -T "TOTALTRACKS=%numtracks%" %hascover%--picture="%coverfile%"%hascover% %source% -o %dest%


TOC of the extracted CD

Track | Start | Length | Start sector | End sector
---------------------------------------------------------
1 | 0:00.00 | 4:54.33 | 0 | 22082
2 | 4:54.33 | 4:07.50 | 22083 | 40657
3 | 9:02.08 | 4:36.57 | 40658 | 61414
4 | 13:38.65 | 5:48.44 | 61415 | 87558
5 | 19:27.34 | 5:16.74 | 87559 | 111332
6 | 24:44.33 | 6:05.05 | 111333 | 138712
7 | 30:49.38 | 5:37.66 | 138713 | 164053
8 | 36:27.29 | 5:02.11 | 164054 | 186714
9 | 41:29.40 | 5:28.03 | 186715 | 211317
10 | 46:57.43 | 5:08.50 | 211318 | 234467
11 | 52:06.18 | 5:49.21 | 234468 | 260663


Range status and errors

Selected range

Filename C:\mm\Cassandra Wilson\2009 - Closer To You. The Pop Side [50999 6960872 8]\Cassandra Wilson - Closer To You. The Pop Side.wav

Peak level 98.6 %
Extraction speed 13.0 X
Range quality 100.0 %
Test CRC C389CC3F
Copy CRC C389CC3F
Copy OK

No errors occurred


AccurateRip summary

Track 1 accurately ripped (confidence 54) [F7AA7690] (AR v2)
Track 2 accurately ripped (confidence 55) [CD358666] (AR v2)
Track 3 accurately ripped (confidence 55) [E5241E9A] (AR v2)
Track 4 accurately ripped (confidence 55) [5979ADFB] (AR v2)
Track 5 accurately ripped (confidence 55) [954A1CAD] (AR v2)
Track 6 accurately ripped (confidence 55) [F1BF335E] (AR v2)
Track 7 accurately ripped (confidence 55) [0767DAF0] (AR v2)
Track 8 accurately ripped (confidence 55) [D8487551] (AR v2)
Track 9 accurately ripped (confidence 55) [84FE5BE2] (AR v2)
Track 10 accurately ripped (confidence 55) [13311860] (AR v2)
Track 11 accurately ripped (confidence 53) [C1C556F5] (AR v2)

All tracks accurately ripped

End of status report

---- CUETools DB Plugin V2.1.6

[CTDB TOCID: gXCQzJq68M6qbAcets92Db6YHE0-] found
Submit result: gXCQzJq68M6qbAcets92Db6YHE0- has been confirmed
Track | CTDB Status
1 | (115/116) Accurately ripped
2 | (114/116) Accurately ripped
3 | (113/116) Accurately ripped
4 | (114/116) Accurately ripped
5 | (113/116) Accurately ripped
6 | (115/116) Accurately ripped
7 | (112/116) Accurately ripped
8 | (114/116) Accurately ripped
9 | (113/116) Accurately ripped
10 | (113/116) Accurately ripped
11 | (111/116) Accurately ripped
[свернуть]

Файл CUE

REM GENRE Jazz
REM DATE 2009
REM DISCID A30D930B
REM COMMENT "ExactAudioCopy v1.3"
PERFORMER "Cassandra Wilson"
TITLE "Closer To You: The Pop Side"
REM COMPOSER ""
FILE "Cassandra Wilson - Closer To You. The Pop Side.flac" WAVE
TRACK 01 AUDIO
TITLE "Love Is Blindness"
PERFORMER "Cassandra Wilson"
REM COMPOSER ""
INDEX 01 00:00:00
TRACK 02 AUDIO
TITLE "Time After Time"
PERFORMER "Cassandra Wilson"
REM COMPOSER ""
INDEX 00 04:53:33
INDEX 01 04:54:33
TRACK 03 AUDIO
TITLE "Fragile"
PERFORMER "Cassandra Wilson"
REM COMPOSER ""
INDEX 00 09:01:08
INDEX 01 09:02:08
TRACK 04 AUDIO
TITLE "Closer To You"
PERFORMER "Cassandra Wilson"
REM COMPOSER ""
INDEX 00 13:37:65
INDEX 01 13:38:65
TRACK 05 AUDIO
TITLE "Last Train To Clarksville"
PERFORMER "Cassandra Wilson"
REM COMPOSER ""
INDEX 00 19:26:35
INDEX 01 19:27:34
TRACK 06 AUDIO
TITLE "The Weight"
PERFORMER "Cassandra Wilson"
REM COMPOSER ""
INDEX 00 24:43:34
INDEX 01 24:44:33
TRACK 07 AUDIO
TITLE "Tupelo Honey"
PERFORMER "Cassandra Wilson"
REM COMPOSER ""
INDEX 00 30:48:39
INDEX 01 30:49:38
TRACK 08 AUDIO
TITLE "Harvest Moon"
PERFORMER "Cassandra Wilson"
REM COMPOSER ""
INDEX 00 36:26:30
INDEX 01 36:27:29
TRACK 09 AUDIO
TITLE "I Can't Stand The Rain"
PERFORMER "Cassandra Wilson"
REM COMPOSER ""
INDEX 00 41:28:41
INDEX 01 41:29:40
TRACK 10 AUDIO
TITLE "Lay, Lady, Lay"
PERFORMER "Cassandra Wilson"
REM COMPOSER ""
INDEX 00 46:56:44
INDEX 01 46:57:43
TRACK 11 AUDIO
TITLE "Wichita Lineman"
PERFORMER "Cassandra Wilson"
REM COMPOSER ""
INDEX 00 52:05:19
INDEX 01 52:06:18
[свернуть]

Лог проверки качества

AUDIOCHECKER v2.0 beta (build 457) - by Dester - [Ссылки могут видеть только зарегистрированные пользователи. ]
~~~~~~~~~~~~~~~~~~~~~~~~~~~~~~~~~~
-=== НЕ РЕДАКТИРУЙТЕ ЭТОТ ФАЙЛ! ===-

Путь: ...\2009 - Closer To You. The Pop Side [50999 6960872 8]

1 -=- Cassandra Wilson - Closer To You. The Pop Side.flac -=- CDDA (100%)

261959396
[свернуть]

Спектр частот

[свернуть]

Скачать Cassandra Wilson - Closer To You: The Pop Side

[Ссылки могут видеть только зарегистрированные пользователи. ]

password: sergych
[свернуть]

Контрольная сумма (хеш-сумма) архива

MD5: 4106bd04bae0182432fc24c50c6c84e4
[свернуть]
My opinion of release: 10/10

Release info RInfo

Тягучий, как патока, альбом каверов. По-южному знойные и неторопливо-протяжные давно известные песни звучат абсолютно неожиданно.
Рекомендую для неспешного, "созерцательного" прослушивания
__________________
TAIFUN.Wings of Soul

Вверх
3 пользователя(ей) сказали cпасибо:
Показать список поблагодаривших
  #2
Старый 20.04.2017, 20:36
swint68
Меломан
Досье
 
Аватар для swint68
По умолчанию Re: Cassandra Wilson - Closer To You: The Pop Side

Большое спасибо!
Отличный альбом!
Только благодаря Вам его услышал и оно того стоит.

Вверх
Пользователь сказал cпасибо:
sergych (21.04.2017)
  #3
Старый 21.04.2017, 18:49
sergych
Координатор
Досье
 
Аватар для sergych
По умолчанию Re: Cassandra Wilson - Closer To You: The Pop Side

swint68, интересная певица. Не сказать, что захватывает сразу, но возвращаешься к ней с удовольствием и ожиданием
__________________
TAIFUN.Wings of Soul

Вверх
Пользователь сказал cпасибо:
swint68 (22.04.2017)
Похожие темы
Тема Автор Раздел Ответов Последнее сообщение
Альбом Cassandra Wilson - Coming Forth by Day sergych Jazz и Blues 0 15.11.2016 20:04
Альбом Cassandra Wilson - Thunderbird sergych Jazz и Blues 0 11.11.2015 19:29
Альбом Cassandra Wilson - Belly of The Sun sergych Jazz и Blues 0 11.11.2015 18:55
Релиз Cassandra Wilson - Another Country PUPOKIN Jazz и Blues 0 27.06.2012 10:14
Релиз Cassandra Wilson - Loverly PUPOKIN Jazz и Blues 0 02.01.2009 13:00


Метки
2009 , cassandra wilson , closer to you: the pop side , contemporary jazz , jazz

Опции темы

Ваши права в разделе
Вы не можете создавать новые темы
Вы не можете отвечать в темах
Вы не можете прикреплять вложения
Вы не можете редактировать свои сообщения

Быстрый переход



Текущее время: 22:15. Часовой пояс GMT +3.
Powered by vBulletin® Version 3.8.7
Copyright ©2000 - 2017, vBulletin Solutions, Inc. Перевод: zCarot
© 2008 - 2017 Taifun With Song
Яндекс.Метрика